<?xml version="1.0" standalone="no"?>
<!DOCTYPE svg PUBLIC "-//W3C//DTD SVG 1.1//EN" "http://www.w3.org/Graphics/SVG/1.1/DTD/svg11.dtd" >
<svg xmlns="http://www.w3.org/2000/svg" xmlns:xlink="http://www.w3.org/1999/xlink" version="1.1">
<metadata>
Created by FontForge 20201107 at Wed Apr  3 17:05:59 2024
 By 
(c) Runsell Type Co. All Rights Reserved.
</metadata>
<defs>
<font id="Gamgote-Regular" horiz-adv-x="1394" >
  <font-face 
    font-family="Gamgote"
    font-weight="400"
    font-stretch="normal"
    units-per-em="2048"
    panose-1="0 0 0 0 0 0 0 0 0 0"
    ascent="1638"
    descent="-410"
    x-height="948"
    cap-height="1434"
    bbox="-133 -573 1989 1784"
    underline-thickness="0"
    underline-position="0"
    unicode-range="U+000A-FB06"
  />
<missing-glyph horiz-adv-x="1079" 
d="M102 1434h875v-1434h-875v1434zM160 1393l379 -633l381 633h-760zM514 717l-369 614v-1231zM541 674l-379 -631h758zM565 717l371 -621v1239z" />
    <glyph glyph-name="f_f" unicode="ff" horiz-adv-x="1114" 
d="M31 948h43q17 0 30 17.5t13 40.5v143q0 129 78.5 207t210.5 78q127 0 227 -93q83 93 225 93q159 0 264 -131l-67 -183l-21 123q-13 68 -53 105q-54 57 -123 57q-68 0 -107.5 -69t-39.5 -187v-143q0 -23 17 -40.5t40 -17.5h354l-65 -84q-7 5 -24.5 12t-91.5 22t-173 20
q-23 0 -40 -16.5t-17 -39.5v-792q0 -19 11 -34.5t28 -19.5l47 -16h-314l47 16q17 4 28 19.5t11 34.5v794q0 9 -2 15q-97 30 -254 39q-23 0 -39 -16.5t-16 -39.5v-792q0 -19 10.5 -34.5t28.5 -19.5l45 -16h-311l47 16q17 4 28 19.5t11 34.5v794q0 23 -13 39.5t-30 16.5h-43
v28zM258 1006q0 -24 16 -41t39 -17h213q18 0 30.5 17t12.5 41v143q0 43 13 90l-2 4q-9 65 -59.5 113.5t-114.5 48.5q-69 0 -108.5 -68.5t-39.5 -187.5v-143z" />
    <glyph glyph-name="fi" unicode="fi" horiz-adv-x="782" 
d="M342 0h-311l47 16q17 4 28 19.5t11 34.5v794q0 23 -13 39.5t-30 16.5h-43v28h43q17 0 30 17.5t13 40.5v143q0 129 78.5 207t210.5 78q155 0 264 -131l-70 -183l-20 123q-9 65 -59.5 113.5t-114.5 48.5q-69 0 -108.5 -68.5t-39.5 -187.5v-143q0 -24 16 -41t39 -17h357
v-878q0 -19 11 -34.5t28 -19.5l47 -16h-314l47 16q17 4 28 19.5t11 34.5v782q0 24 -20 41q-76 17 -195 25q-23 0 -39 -16.5t-16 -39.5v-792q0 -19 10.5 -34.5t28.5 -19.5z" />
    <glyph glyph-name="fl" unicode="fl" horiz-adv-x="854" 
d="M342 0h-311l47 16q17 4 28 19.5t11 34.5v794q0 23 -13 39.5t-30 16.5h-43v28h43q17 0 30 17.5t13 40.5v143q0 129 78.5 207t210.5 78q57 0 126 -27l209 27v-1364q0 -19 10.5 -34.5t28.5 -19.5l45 -16h-311l45 16q18 4 28.5 19.5t10.5 34.5v796q-12 7 -35.5 15t-92 20
t-157.5 17q-23 0 -39 -16.5t-16 -39.5v-792q0 -19 10.5 -34.5t28.5 -19.5zM258 1149v-143q0 -24 16 -41t39 -17h285v182l-18 113q-9 65 -59.5 113.5t-114.5 48.5q-69 0 -108.5 -68.5t-39.5 -187.5z" />
    <glyph glyph-name=".notdef" horiz-adv-x="1079" 
d="M102 1434h875v-1434h-875v1434zM160 1393l379 -633l381 633h-760zM514 717l-369 614v-1231zM541 674l-379 -631h758zM565 717l371 -621v1239z" />
    <glyph glyph-name="uni0000" horiz-adv-x="0" 
 />
    <glyph glyph-name="uni0000" horiz-adv-x="0" 
 />
    <glyph glyph-name="uni000D" unicode="&#xd;" horiz-adv-x="512" 
 />
    <glyph glyph-name="uni000A" unicode="&#xa;" horiz-adv-x="0" 
 />
    <glyph glyph-name="space" unicode=" " horiz-adv-x="563" 
 />
    <glyph glyph-name="exclam" unicode="!" horiz-adv-x="337" 
d="M164 184q36 2 62.5 -23t29.5 -67q1 -41 -22.5 -67.5t-59.5 -28.5q-41 0 -65 24t-27 64q-1 42 22.5 68.5t59.5 29.5zM182 295h-26l-58 1137h142z" />
    <glyph glyph-name="numbersign" unicode="#" horiz-adv-x="1087" 
d="M51 1067v29h219q12 0 20.5 7.5t8.5 18.5v310h29v-310q0 -11 8 -18.5t20 -7.5h375q12 0 20.5 7.5t8.5 18.5v310h28v-310q0 -11 8.5 -18.5t20.5 -7.5h219v-29h-219q-12 0 -20.5 -9t-8.5 -20v-647q0 -12 8.5 -20.5t20.5 -8.5h219v-28h-219q-12 0 -20.5 -8.5t-8.5 -20.5v-307
h-28v307q0 12 -8.5 20.5t-20.5 8.5h-375q-12 0 -20 -8.5t-8 -20.5v-307h-29v307q0 12 -8.5 20.5t-20.5 8.5h-219v28h219q12 0 20.5 8.5t8.5 20.5v647q0 11 -8.5 20t-20.5 9h-219zM356 1067q-12 0 -20 -9t-8 -20v-647q0 -12 8 -20.5t20 -8.5h375q12 0 20.5 8.5t8.5 20.5v647
q0 11 -8.5 20t-20.5 9h-375z" />
    <glyph glyph-name="dollar" unicode="$" horiz-adv-x="1032" 
d="M76 375q0 77 25 138.5t68.5 101.5t91 64.5t101.5 37.5q23 6 26.5 17.5t-15.5 23.5q-116 76 -181 157.5t-65 192.5q0 62 23.5 119.5t67.5 104t114.5 74.5t156.5 28h9q6 0 6 26v144h28v-144q0 -12 8.5 -22t20.5 -11q108 -17 200 -81t157 -166l-87 -172l-18 125
q-23 93 -93 166t-161 98q-11 2 -19 -5.5t-8 -19.5v-520q0 -11 6 -24t15 -17q12 -9 22 -14q13 -8 39 -25q48 -30 73 -46.5t68 -47.5t66.5 -54t54.5 -57.5t46.5 -67t27 -74t11.5 -85.5q0 -150 -107.5 -245t-290.5 -95h-16q-6 0 -10.5 -8.5t-4.5 -20.5v-143h-28v145
q0 12 -8.5 20.5t-20.5 10.5q-80 9 -147 34.5t-113 61.5t-78 81.5t-46.5 94t-14.5 99.5zM217 377q0 -79 26 -147.5t86 -121.5t146 -71q29 0 29 22v586q0 29 -2 29q-10 8 -23 14q-9 6 -33 6q-19 0 -40 -6q-34 -12 -63.5 -31.5t-59.5 -54.5t-48 -93t-18 -132zM532 627v-570
q0 -28 15 -28h16q118 0 187 66.5t69 176.5q0 59 -20 112t-58.5 98t-82 81t-103.5 76q-4 4 -12 4q-11 0 -11 -16zM489 1405q-62 0 -107 -23t-68 -60t-33.5 -73.5t-10.5 -72.5q0 -95 54.5 -170t156.5 -146q4 -4 13 -4q10 0 10 16v504q0 29 -6 29h-9z" />
    <glyph glyph-name="percent" unicode="%" horiz-adv-x="1150" 
d="M494 1030q0 -123 -58.5 -195.5t-156.5 -72.5q-100 0 -159 72.5t-59 195.5q0 122 59 195t159 73q98 0 156.5 -73t58.5 -195zM152 1030q0 -109 34.5 -174t92.5 -65q57 0 90.5 65t33.5 174t-33.5 174.5t-90.5 65.5q-58 0 -92.5 -65.5t-34.5 -174.5zM872 672q98 0 156.5 -73
t58.5 -196q0 -122 -58.5 -194t-156.5 -72t-157.5 72.5t-59.5 193.5q0 123 59.5 196t157.5 73zM872 164q57 0 91 65t34 174t-34 174.5t-91 65.5t-92 -65.5t-35 -174.5q0 -108 35 -173.5t92 -65.5zM944 1434h31l-768 -1434h-33z" />
    <glyph glyph-name="ampersand" unicode="&#x26;" horiz-adv-x="1150" 
d="M854 16q15 4 20.5 19.5t-0.5 30.5l-12 20q-7 10 -18 10q-5 0 -13 -4q-119 -92 -290 -92q-216 0 -343.5 97t-127.5 274q0 129 85.5 240.5t219.5 158.5q19 6 19 17t-17 20q-88 40 -141.5 120t-53.5 175q0 141 104 236.5t259 95.5q143 0 245.5 -98t102.5 -234
q0 -89 -43 -163.5t-119 -119.5q-17 -9 -15 -15.5t21 -6.5h305l27 -115q-3 3 -9.5 7t-34.5 15.5t-64.5 21.5t-103 20.5t-146.5 15.5h-4q-22 0 -29.5 -13.5t2.5 -33.5l356 -652q19 -37 56 -49l34 -14h-331zM324 1102q0 -116 53 -204t131 -101q79 0 135.5 46.5t81.5 114
t25 144.5q0 126 -60 214.5t-145 88.5q-72 0 -124 -46.5t-74.5 -113.5t-22.5 -143zM774 139q15 17 17 44.5t-9 47.5l-264 486q-8 15 -25 26t-34 11q-9 0 -21 -4q-98 -40 -162.5 -147.5t-64.5 -231.5q0 -167 89 -254.5t241 -87.5q131 0 233 110z" />
    <glyph glyph-name="parenleft" unicode="(" horiz-adv-x="448" 
d="M330 -231q-88 84 -146.5 236.5t-80.5 309t-21 318.5q2 182 33.5 351.5t88.5 306t147 218.5t200 82v-28q-83 0 -158.5 -128t-121.5 -343.5t-48 -458.5q-2 -289 55.5 -528.5t153.5 -340.5q55 -61 119 -61v-29q-118 0 -221 95z" />
    <glyph glyph-name="parenright" unicode=")" horiz-adv-x="442" 
d="M-111 1563v28q126 0 220 -94q89 -84 147.5 -236.5t80.5 -308.5t21 -319q-2 -181 -33.5 -350.5t-89 -306.5t-147.5 -219.5t-199 -82.5v29q83 0 158 128t120.5 343.5t47.5 458.5q3 287 -54.5 527t-152.5 343q-57 60 -119 60z" />
    <glyph glyph-name="asterisk" unicode="*" horiz-adv-x="536" 
d="M319 1223q-6 -3 -6 -10.5t6 -10.5l154 -78l-49 -69l-117 102q-2 2 -6 2q-12 0 -12 -12l20 -154h-86l21 156q3 12 -11 12q-6 0 -8 -2l-121 -100l-45 69l154 74q7 3 7.5 10.5t-5.5 10.5l-154 77l48 70l116 -102q4 -4 8 -4q5 0 8.5 4t2.5 10l-21 154h86l-20 -158q-1 -4 2 -8
t8 -4q4 0 8 4l121 100l45 -72z" />
    <glyph glyph-name="plus" unicode="+" horiz-adv-x="716" 
d="M47 729h268q12 0 20.5 8.5t8.5 20.5v268h29v-268q0 -12 8 -20.5t20 -8.5h269v-29h-269q-12 0 -20 -8t-8 -20v-269h-29v269q0 12 -8.5 20t-20.5 8h-268v29z" />
    <glyph glyph-name="comma" unicode="," horiz-adv-x="280" 
d="M135 184q37 2 64.5 -23.5t27.5 -66.5q0 -12 -1.5 -21.5t-3.5 -13.5l-1 -4l-69 -186l-41 18l34 111q-41 0 -65 24t-27 64q-1 42 22.5 68.5t59.5 29.5z" />
    <glyph glyph-name="hyphen" unicode="-" horiz-adv-x="428" 
d="M395 702h-362v29h362v-29z" />
    <glyph glyph-name="period" unicode="." horiz-adv-x="280" 
d="M135 184q36 2 62.5 -23t29.5 -67q1 -41 -22.5 -67.5t-59.5 -28.5q-41 0 -65 24t-27 64q-1 42 22.5 68.5t59.5 29.5z" />
    <glyph glyph-name="slash" unicode="/" horiz-adv-x="776" 
d="M645 1538h29l-541 -1644h-31z" />
    <glyph glyph-name="zero" unicode="0" horiz-adv-x="1234" 
d="M616 0q-78 0 -151.5 23t-144.5 77.5t-124 135t-85.5 204.5t-32.5 277t32.5 277t85.5 204.5t124 135t144.5 77.5t151.5 23t152.5 -23t146 -77.5t124.5 -135t85.5 -204.5t32.5 -277t-32.5 -277t-85.5 -204.5t-124.5 -135t-146 -77.5t-152.5 -23zM616 1405q-181 0 -289 -187
t-108 -501t108 -501t289 -187q182 0 291 187.5t109 500.5t-109 500.5t-291 187.5z" />
    <glyph glyph-name="one" unicode="1" horiz-adv-x="454" 
d="M88 0l47 16q17 4 28 19.5t11 34.5v1228q0 54 -8 50l-10 -7q-45 -30 -56 -77l-14 -56l-16 109l170 117h75v-1364q0 -19 11 -34.5t28 -19.5l47 -16h-313z" />
    <glyph glyph-name="two" unicode="2" horiz-adv-x="907" 
d="M793 0h-725q0 40 7 79.5t15 72t28.5 72.5t33 65t43.5 66.5t45 60t52 62t50.5 57t54.5 59.5q57 62 90 101t76.5 97.5t67 104.5t40.5 103t17 112q0 127 -61.5 210t-155.5 83q-86 0 -161 -58t-128 -163q-5 -10 -14 -87.5t-14 -88.5l-86 172q72 120 176.5 187t228.5 67
q155 0 255.5 -99.5t100.5 -263.5q0 -69 -21 -134.5t-52 -116.5t-82.5 -106.5t-95 -95t-106.5 -93.5q-21 -18 -32 -27q-214 -183 -288 -305q-12 -20 -2.5 -36t32.5 -16q226 3 385.5 17.5t206.5 27.5l47 13z" />
    <glyph glyph-name="three" unicode="3" horiz-adv-x="985" 
d="M633 811q-45 -22 2 -37q124 -45 201 -146.5t77 -226.5q0 -166 -128.5 -283.5t-311.5 -117.5q-124 0 -228.5 67t-176.5 187l86 172l20 -125q18 -105 106.5 -188.5t192.5 -83.5q123 0 211 109t88 263t-88 263.5t-211 109.5v29q86 0 147.5 88.5t61.5 212.5t-61.5 212.5
t-147.5 88.5q-101 0 -192.5 -84.5t-106.5 -187.5l-20 -125l-86 172q72 120 176.5 187t228.5 67q146 0 248 -96.5t102 -233.5q0 -94 -52 -172.5t-138 -120.5z" />
    <glyph glyph-name="four" unicode="4" horiz-adv-x="968" 
d="M578 377h-476v112q3 1 22.5 18t54.5 53.5t74 84.5t80 117t73.5 144.5t53.5 172.5t21 197v158h144v-158q0 -107 -31 -212.5t-76 -184t-107 -153t-110.5 -119.5t-99.5 -85q-19 -14 -16 -23.5t26 -9.5q157 2 367 15q24 1 40.5 19t16.5 42v383l141 29v-397q0 -48 55 -48
l78 15l-26 -170h-54q-22 0 -37.5 -17.5t-15.5 -40.5v-249q0 -19 11 -34.5t28 -19.5l47 -16h-313l47 16q17 4 28 19.5t11 34.5v249q0 23 -17 40.5t-40 17.5z" />
    <glyph glyph-name="five" unicode="5" horiz-adv-x="1034" 
d="M176 823q248 37 336 37q195 0 325 -123.5t130 -306.5q0 -117 -61 -216.5t-162 -156.5t-216 -57q-132 0 -250 70t-196 184l86 172l18 -113q22 -116 125 -200t221 -84q120 0 206.5 101t86.5 243q0 151 -88 247.5t-225 96.5q-58 0 -165.5 -13.5t-186.5 -26.5l-78 -13l51 770
l10 -7l2 7h686l-26 -199q-18 6 -56.5 14.5t-192 24t-347.5 18.5q-25 0 -42.5 -17t-19.5 -40l-22 -365q-1 -21 10.5 -34t32.5 -13h8z" />
    <glyph glyph-name="six" unicode="6" horiz-adv-x="972" 
d="M737 1149q-19 95 -91.5 175.5t-162.5 80.5q-235 0 -256 -502q0 -31 19 -31q6 0 24 11q92 65 219 65q180 0 294 -132t114 -341q0 -210 -114 -342.5t-294 -132.5q-173 0 -285 125t-120 324v321q0 158 24.5 279t62.5 192.5t92 116.5t105.5 60.5t110.5 15.5q112 0 206.5 -67
t158.5 -187l-86 -172zM489 920q-118 0 -191 -122.5t-73 -322.5q0 -201 72.5 -323.5t191.5 -122.5q120 0 193.5 122.5t73.5 323.5q0 200 -73.5 322.5t-193.5 122.5z" />
    <glyph glyph-name="seven" unicode="7" horiz-adv-x="917" 
d="M102 1235l29 199h684v-142q-206 -206 -288 -505q-44 -162 -44 -334v-381q0 -19 12 -34.5t31 -19.5l70 -18h-340l47 16q17 4 28 19.5t11 34.5v383q0 116 25.5 227.5t63 194t90 160.5t95.5 126.5t89 91.5q17 17 12.5 28t-27.5 11q-200 -3 -347 -17t-194 -27z" />
    <glyph glyph-name="eight" unicode="8" horiz-adv-x="983" 
d="M492 0q-181 0 -298.5 119.5t-117.5 304.5q0 137 68.5 241.5t183.5 149.5q45 19 0 37q-83 39 -132 111t-49 163q0 131 99 219.5t246 88.5q146 0 244 -88.5t98 -219.5q0 -91 -49 -163t-132 -111q-45 -18 0 -37q116 -44 184 -149t68 -242q0 -185 -116.5 -304.5
t-296.5 -119.5zM289 1126q0 -124 57 -202t146 -78t144.5 77.5t55.5 202.5q0 123 -55.5 201t-144.5 78t-146 -78t-57 -201zM492 817q-123 0 -199 -108t-76 -285q0 -178 76 -286.5t199 -108.5q122 0 197 108.5t75 286.5q0 177 -75 285t-197 108z" />
    <glyph glyph-name="nine" unicode="9" horiz-adv-x="972" 
d="M236 285q19 -96 91 -176t162 -80q235 0 256 501q0 31 -20 31q-10 0 -23 -10q-94 -66 -221 -66q-179 0 -292 132t-113 341q0 211 113 343.5t292 132.5q174 0 286.5 -125t121.5 -324v-321q0 -158 -24.5 -279t-62.5 -192.5t-92 -116.5t-105.5 -60.5t-110.5 -15.5
q-112 0 -206.5 66.5t-160.5 187.5l88 172zM481 514q120 0 193.5 122t73.5 322q0 201 -73.5 324t-193.5 123q-119 0 -191.5 -123t-72.5 -324q0 -199 72.5 -321.5t191.5 -122.5z" />
    <glyph glyph-name="colon" unicode=":" horiz-adv-x="301" 
d="M156 745q-37 -2 -63.5 23.5t-29.5 67.5q-1 41 22.5 67.5t59.5 28.5q40 0 65 -24t28 -64q1 -42 -22.5 -69t-59.5 -30zM145 295q36 2 63 -23t30 -67q1 -41 -22.5 -67.5t-59.5 -28.5q-41 0 -65.5 24t-27.5 64q-1 42 22.5 68.5t59.5 29.5z" />
    <glyph glyph-name="semicolon" unicode=";" horiz-adv-x="307" 
d="M158 745q-37 -2 -63 23.5t-29 67.5q-1 41 22 67.5t59 28.5q40 0 65 -24t28 -64q1 -42 -22.5 -69t-59.5 -30zM147 295q37 2 65 -23.5t28 -66.5q0 -12 -2 -21.5t-4 -13.5l-1 -4l-69 -186l-41 16l35 113q-41 0 -65 24t-27 64q-1 42 22 68.5t59 29.5z" />
    <glyph glyph-name="less" unicode="&#x3c;" horiz-adv-x="552" 
d="M47 717l447 340v-37l-377 -287q-9 -7 -9 -17t9 -18l377 -286v-35z" />
    <glyph glyph-name="equal" unicode="=" horiz-adv-x="704" 
d="M41 563v29h623v-29h-623zM41 836v28h623v-28h-623z" />
    <glyph glyph-name="greater" unicode="&#x3e;" horiz-adv-x="552" 
d="M504 717l-447 -340v35l377 286q9 8 9 18.5t-9 16.5l-377 287v37z" />
    <glyph glyph-name="question" unicode="?" horiz-adv-x="935" 
d="M473 184q36 2 62.5 -23t29.5 -67q1 -41 -22.5 -67.5t-59.5 -28.5q-40 0 -65.5 23.5t-26.5 64.5q-3 41 21 68t61 30zM508 1434q163 0 264.5 -96t101.5 -261q0 -35 -3 -66t-12 -60.5t-15 -51.5t-22.5 -49t-24.5 -41.5t-30 -41.5t-29.5 -36t-33.5 -38t-32 -36
q-44 -50 -69 -82t-54.5 -79t-43 -96.5t-13.5 -104.5h-29q0 58 10.5 115.5t20.5 92t38 91.5t36.5 72t43.5 75q61 103 91 184t30 183q0 134 -62 215.5t-163 81.5q-104 0 -192.5 -83.5t-106.5 -188.5l-21 -125l-86 172q72 120 177 187t229 67z" />
    <glyph glyph-name="at" unicode="@" horiz-adv-x="1335" 
d="M668 1311q162 0 299.5 -80t217 -217.5t79.5 -298.5q0 -158 -75.5 -253t-201.5 -95q-64 0 -110.5 29.5t-71.5 78.5q-15 27 -41 27q-13 0 -25 -6q-60 -31 -135 -31q-115 0 -184.5 67t-69.5 177q0 124 87 208t216 84q56 0 116 -18.5t92 -36.5l32 -18v-348q0 -75 28.5 -130
t86.5 -55q74 0 123 88.5t49 231.5q0 157 -62 285.5t-179.5 205t-270.5 76.5q-152 0 -269.5 -76.5t-179 -205t-61.5 -285.5t61.5 -285.5t179 -205.5t269.5 -77q115 0 233 78l21 -55q-114 -51 -254 -51q-161 0 -298.5 79.5t-217.5 217t-80 299.5q0 161 80 298.5t217.5 217.5
t298.5 80zM778 752v92q0 27 -10 55.5t-29 40.5q-41 33 -86 33q-83 0 -135.5 -77t-52.5 -196q0 -35 5 -66t18.5 -65t43 -54.5t72.5 -20.5q50 0 86 23.5t54 64t26 82t8 88.5z" />
    <glyph glyph-name="A" unicode="A" horiz-adv-x="1015" 
d="M-6 0l407 1270q16 61 11 76l-9 22q-9 36 -47 53l-30 13h206l441 -1375q9 -30 39 -43l37 -16h-320l76 20q12 3 17.5 13.5t2.5 21.5l-139 432q-8 23 -29.5 39.5t-44.5 16.5h-319q-24 0 -44 -17t-24 -41q-48 -245 -57 -407q-1 -23 10.5 -40.5t32.5 -25.5l39 -12h-256z
M254 627q-5 -23 8.5 -40.5t36.5 -17.5h305q23 0 34 16t5 40l-192 598q-5 22 -17 22q-10 0 -18 -22q-102 -330 -162 -596z" />
    <glyph glyph-name="B" unicode="B" horiz-adv-x="1015" 
d="M23 0l47 16q17 4 28 19.5t11 34.5v1294q0 19 -11 34t-28 19l-47 17h516q145 0 247.5 -95.5t102.5 -230.5q0 -107 -68 -192.5t-174 -118.5q141 -22 236.5 -134.5t95.5 -261.5q0 -170 -107.5 -285.5t-283.5 -115.5q-178 0 -295 86q-17 10 -25 10q-18 0 -18 -30v-66h-227z
M305 774q-23 0 -39 -16t-16 -41v-373q0 -78 52 -152t131 -118.5t155 -44.5q115 0 181.5 106t66.5 266q0 154 -72.5 263.5t-175.5 109.5h-283zM250 860q0 -25 16 -41t39 -16h234q86 0 147.5 88.5t61.5 212.5t-61.5 212.5t-147.5 88.5h-234q-23 0 -39 -16t-16 -41v-488z" />
    <glyph glyph-name="C" unicode="C" horiz-adv-x="1239" 
d="M698 0q-139 0 -262 55t-210.5 149.5t-138 228t-50.5 284.5t50.5 284.5t138 228t210.5 149.5t262 55q156 0 289 -67t225 -187l-88 -172l-14 102q-19 85 -85.5 154t-153.5 105t-173 36q-146 0 -265.5 -89.5t-187 -247t-67.5 -351.5t67.5 -351.5t187 -247t265.5 -89.5
q86 0 173 36t153.5 105t85.5 154l14 102l88 -172q-92 -120 -225 -187t-289 -67z" />
    <glyph glyph-name="D" unicode="D" horiz-adv-x="1058" 
d="M250 0h-227l47 16q17 4 28 19.5t11 34.5v1294q0 19 -11 34t-28 19l-47 17h452q77 0 150.5 -23t144 -77.5t123 -135t85 -204.5t32.5 -277q0 -133 -19.5 -243t-50 -182.5t-74 -128t-86 -85.5t-91.5 -48.5t-85 -24t-72 -5.5q-149 0 -243 74q-12 10 -25 10q-14 0 -14 -27v-57
zM250 332q0 -127 77.5 -215t204.5 -88q60 0 110 25t84 66t60 99.5t41.5 119t25 131t12.5 128.5t3 119q0 318 -105.5 503t-287.5 185h-170q-23 0 -39 -16t-16 -41v-1016z" />
    <glyph glyph-name="E" unicode="E" horiz-adv-x="913" 
d="M70 1417l-47 17h772l28 -113q-7 3 -19.5 7.5t-59.5 17t-102 23t-146 20.5t-191 14q-23 1 -39 -14.5t-16 -40.5v-398q0 -23 16 -39t39 -16h424l29 -115q-4 3 -12 8t-43.5 19t-81.5 24.5t-130.5 20.5t-185.5 12q-23 1 -39 -15t-16 -40v-723q0 -23 16 -39t39 -16
q122 6 229 22t172.5 35.5t113.5 38t68 31.5l19 12l-55 -170h-829l47 16q17 4 28 19.5t11 34.5v1294q0 19 -11 34t-28 19z" />
    <glyph glyph-name="F" unicode="F" horiz-adv-x="823" 
d="M334 0h-311l47 16q17 4 28 19.5t11 34.5v1294q0 19 -11 34t-28 19l-47 17h772l28 -113q-7 3 -19.5 7.5t-59.5 17t-102 23t-146 20.5t-191 14q-23 1 -39 -14.5t-16 -40.5v-453q0 -25 16 -41t39 -16h424l29 -113q-4 3 -12 8t-43.5 18.5t-81.5 24t-130.5 20.5t-185.5 13
q-23 0 -39 -16t-16 -41v-682q0 -19 10.5 -34.5t28.5 -19.5z" />
    <glyph glyph-name="G" unicode="G" horiz-adv-x="1267" 
d="M969 63q-112 -63 -273 -63q-139 0 -262 55t-210.5 149.5t-138 228t-50.5 284.5t50.5 284.5t138 228t210.5 149.5t262 55q156 0 289 -67t225 -187l-88 -172l-14 102q-19 85 -85.5 154t-153.5 105t-173 36q-146 0 -265.5 -89.5t-187 -247t-67.5 -351.5t67.5 -351.5
t187 -247t265.5 -89.5q171 0 250 88q14 16 14.5 46.5t-10.5 49.5l-219 403q-10 21 -35 36.5t-49 15.5h-166q-65 0 -113.5 38t-48.5 101q0 57 43 108.5t130 51.5q192 0 350 -256l360 -664q9 -17 31 -27l51 -20h-330l70 20q10 3 14.5 13.5t-0.5 19.5l-12 21q-3 6 -12 6
q-18 0 -45 -17zM481 694q207 0 207 2q-56 108 -108 161.5t-109 53.5t-90 -28.5t-33 -75.5q0 -44 33 -74q32 -36 100 -39z" />
    <glyph glyph-name="H" unicode="H" horiz-adv-x="1134" 
d="M23 1434h311l-45 -17q-18 -4 -28.5 -19t-10.5 -34v-576q0 -25 16 -41t39 -16h522q24 0 41 16.5t17 40.5v576q0 19 -11 34t-28 19l-47 17h311l-45 -17q-18 -4 -28.5 -19t-10.5 -34v-1294q0 -19 10.5 -34.5t28.5 -19.5l45 -16h-311l47 16q17 4 28 19.5t11 34.5v575
q0 24 -17 40.5t-41 16.5h-522q-23 0 -39 -16t-16 -41v-575q0 -19 10.5 -34.5t28.5 -19.5l45 -16h-311l47 16q17 4 28 19.5t11 34.5v1294q0 19 -11 34t-28 19z" />
    <glyph glyph-name="I" unicode="I" horiz-adv-x="358" 
d="M70 16q17 4 28 19.5t11 34.5v1294q0 19 -11 34t-28 19l-47 17h311l-45 -17q-18 -4 -28.5 -19t-10.5 -34v-1294q0 -19 10.5 -34.5t28.5 -19.5l45 -16h-311z" />
    <glyph glyph-name="J" unicode="J" horiz-adv-x="417" 
d="M315 408q0 -102 -26.5 -182t-71 -128t-99 -73t-114.5 -25v14q80 0 125 101.5t45 292.5v956q0 19 -11 34t-28 19l-47 17h313l-47 -17q-17 -4 -28 -19t-11 -34v-956z" />
    <glyph glyph-name="K" unicode="K" horiz-adv-x="1015" 
d="M23 1434h311l-45 -17q-18 -4 -28.5 -19t-10.5 -34v-291q17 -47 41 -91.5t57.5 -88t79 -70t94.5 -26.5q74 0 124.5 86.5t64.5 218.5q2 33 10 133t10 123q2 20 -10.5 37.5t-32.5 21.5l-65 17h301l-52 -17q-35 -14 -38 -49q-3 -54 -21 -266q-11 -117 -64 -203.5t-141 -116.5
q-23 -7 -31 -24t3 -37l362 -666q17 -28 43 -39l43 -16h-332l64 18q13 3 18.5 16t-0.5 25l-379 695q-23 44 -73 80q-21 12 -39 30q-13 13 -23 13q-14 0 -14 -29v-778q0 -19 10.5 -34.5t28.5 -19.5l45 -16h-311l47 16q17 4 28 19.5t11 34.5v1294q0 19 -11 34t-28 19z" />
    <glyph glyph-name="L" unicode="L" horiz-adv-x="835" 
d="M23 0l47 16q17 4 28 19.5t11 34.5v1294q0 19 -11 34t-28 19l-47 17h311l-45 -17q-18 -4 -28.5 -19t-10.5 -34v-1278q0 -23 16 -39t39 -16q119 6 219 22t157.5 35.5t98 38t55.5 31.5l15 12l-55 -170h-772z" />
    <glyph glyph-name="M" unicode="M" horiz-adv-x="1341" 
d="M23 1434h239l389 -1049q9 -20 21 -20t18 20l387 1049h242l-47 -17q-17 -4 -28 -19t-11 -34v-1294q0 -19 11 -34.5t28 -19.5l47 -16h-311l45 16q18 4 28.5 19.5t10.5 34.5v1263q0 25 -7 25q-6 0 -12 -21q-231 -621 -352 -1050q-14 -55 0 -90l12 -33q9 -28 37 -35l68 -20
h-236l-446 1206q-6 20 -15 20q-6 0 -6 -24v-185q0 -447 35.5 -701t79.5 -368q10 -30 41 -37l71 -20h-253v1364q0 19 -11 34t-28 19z" />
    <glyph glyph-name="N" unicode="N" horiz-adv-x="983" 
d="M70 1417l-47 17h172l489 -486q115 -115 164 -315q6 -25 10 -25q2 0 2 23v53q0 391 -115 688q-13 33 -47 43l-65 19h256v-1434h-58q0 214 -15 319q-45 325 -275 571q-16 17 -33 34l-332 327q-13 13 -22 13q-19 0 -19 -29v-109q0 -447 35.5 -701t79.5 -368q10 -30 41 -37
l71 -20h-253v1364q0 19 -11 34t-28 19z" />
    <glyph glyph-name="O" unicode="O" 
d="M696 1434q186 0 337.5 -93t238 -257.5t86.5 -366.5t-86 -366.5t-237.5 -257.5t-338.5 -93q-139 0 -262 55t-210.5 149.5t-138 228t-50.5 284.5t50.5 284.5t138 228t210.5 149.5t262 55zM696 29q146 0 265.5 89.5t187.5 247t68 351.5t-68 351.5t-187.5 247t-265.5 89.5
t-265.5 -89.5t-187 -247t-67.5 -351.5t67.5 -351.5t187 -247t265.5 -89.5z" />
    <glyph glyph-name="P" unicode="P" horiz-adv-x="919" 
d="M35 1434h528q144 0 246 -97.5t102 -234.5q0 -138 -101.5 -235t-246.5 -97q-152 0 -262 98q-13 13 -25 13q-14 0 -14 -29v-782q0 -19 10.5 -34.5t28.5 -19.5l45 -16h-311l47 16q17 4 28 19.5t11 34.5v1294q0 19 -11 34t-28 19zM262 1348v-209q0 -73 43 -152.5t114 -134.5
t144 -55q86 0 146.5 89.5t60.5 215.5t-60.5 214.5t-146.5 88.5h-246q-23 0 -39 -16t-16 -41z" />
    <glyph glyph-name="Q" unicode="Q" 
d="M35 717q0 151 50.5 284.5t138 228t210.5 149.5t262 55q186 0 337.5 -93t238 -257.5t86.5 -366.5q0 -196 -82 -357.5t-226 -256.5t-323 -103q5 -130 87.5 -247.5t205.5 -145.5l102 -17l-172 -86q-116 89 -183 217t-71 279q-139 0 -262 55t-210.5 149.5t-138 228
t-50.5 284.5zM1217 717q0 194 -68 351.5t-187.5 247t-265.5 89.5t-265.5 -89.5t-187 -247t-67.5 -351.5t67.5 -351.5t187 -247t265.5 -89.5t265.5 89.5t187.5 247t68 351.5z" />
    <glyph glyph-name="R" unicode="R" horiz-adv-x="1036" 
d="M346 0h-311l47 16q17 4 28 19.5t11 34.5v1294q0 19 -11 34t-28 19l-47 17h528q144 0 246 -97.5t102 -234.5q0 -122 -82 -215t-206 -113q-24 -5 -32.5 -19t1.5 -36l362 -664q17 -28 43 -39l43 -16h-331l63 18q13 3 19 16t0 25l-383 705q-26 44 -76 80l-31 24
q-13 13 -25 13q-14 0 -14 -29v-782q0 -19 10.5 -34.5t28.5 -19.5zM262 1139q0 -73 43 -152.5t114 -134.5t144 -55q86 0 146.5 89.5t60.5 215.5t-60.5 214.5t-146.5 88.5h-301v-266z" />
    <glyph glyph-name="S" unicode="S" horiz-adv-x="960" 
d="M338 758q-56 37 -95 70t-76 76t-56 94.5t-19 109.5q0 62 24 119.5t68 104t114.5 74.5t156.5 28q130 0 241 -67t187 -187l-86 -172l-19 125q-25 110 -119 191t-204 81q-62 0 -107 -23t-68 -60t-33.5 -73.5t-10.5 -72.5q0 -61 22.5 -114t68.5 -100t94 -83t120 -82
q10 -7 52.5 -33.5t56 -35.5t51.5 -35.5t52.5 -39.5t45 -40t43.5 -45.5t33 -47.5t28.5 -55t15.5 -58.5t7 -66.5q0 -150 -107.5 -245t-290.5 -95q-122 0 -218.5 33t-153.5 87.5t-86 119.5t-29 135q0 78 25.5 140t69 101.5t91.5 63.5t103 37q22 6 24.5 17.5t-16.5 23.5zM528 29
q118 0 187 66.5t69 176.5q0 66 -24.5 124t-73.5 108.5t-98.5 88t-122.5 83.5l-21 14q-6 6 -30 6t-43 -8q-34 -12 -63.5 -31.5t-59.5 -54.5t-48 -92.5t-18 -130.5q0 -68 20 -128.5t60 -111t108.5 -80.5t157.5 -30z" />
    <glyph glyph-name="T" unicode="T" horiz-adv-x="915" 
d="M330 1399q-97 -8 -184.5 -27.5t-126.5 -35.5l-39 -15l28 113h899l29 -113q-155 58 -350 78q-26 0 -42 -14t-16 -39v-1276q0 -19 11 -34.5t28 -19.5l47 -16h-313l47 16q17 4 28 19.5t11 34.5v1278q0 25 -16 38t-41 13z" />
    <glyph glyph-name="U" unicode="U" horiz-adv-x="1081" 
d="M16 1434h312l-45 -17q-18 -4 -28.5 -19t-10.5 -34v-1012q0 -156 61 -239.5t174 -83.5q65 0 122.5 28.5t98 75t70.5 104t44.5 116.5t14.5 112v899q0 44 -38 53l-46 17h312l-45 -17q-18 -4 -28.5 -19t-10.5 -34v-1294q0 -19 10.5 -34.5t28.5 -19.5l45 -16h-312l46 16
q38 9 38 54v65q0 27 -10 27q-6 0 -20 -17q-53 -67 -135.5 -106t-184.5 -39q-174 0 -275.5 97.5t-101.5 254.5v1012q0 19 -11 34t-28 19z" />
    <glyph glyph-name="V" unicode="V" horiz-adv-x="1042" 
d="M-33 1434h320l-76 -21q-12 -3 -18 -13.5t-3 -21.5l390 -1212q7 -23 16 -23q11 0 18 23q135 428 193.5 725.5t69.5 464.5q1 23 -11.5 41t-34.5 24l-38 13h258l-439 -1368q9 -37 47 -54l29 -12h-205l-440 1374q-9 30 -39 43z" />
    <glyph glyph-name="W" unicode="W" horiz-adv-x="1572" 
d="M4 1417l-37 17h320l-76 -21q-12 -3 -18 -13.5t-3 -21.5l390 -1212q7 -23 16 -23q11 0 18 23q92 298 148 524q14 55 -4 111l-185 573q-9 30 -38 43l-37 17h553l-156 -488q-7 -22 -7 -53t7 -53l215 -674q10 -23 18 -23q10 0 17 23q94 298 155.5 564t80.5 396t26 230
q2 23 -10.5 41t-34.5 24l-37 13h256l-438 -1368q9 -37 47 -54l31 -12h-207l-211 662l-191 -596q9 -37 47 -54l29 -12h-205l-440 1374q-9 30 -39 43zM741 1413q-12 -3 -17.5 -13.5t-2.5 -21.5l96 -297q6 -20 14 -20q7 0 13 22q25 154 33 273q1 23 -11.5 41t-34.5 24l-26 9z
" />
    <glyph glyph-name="X" unicode="X" horiz-adv-x="1013" 
d="M-2 1434h330l-68 -19q-11 -5 -15.5 -16.5t1.5 -22.5l272 -518q10 -20 27 -20q13 0 26 22q146 295 203 490q6 23 -6 43t-35 26l-55 15h231l-321 -607q-10 -20 -10 -49t10 -51l358 -678q15 -22 35 -31l49 -18h-330l74 20q9 3 12.5 12.5t-0.5 18.5l-340 641q-9 21 -24 21
t-27 -21q-199 -389 -262 -608q-6 -23 6 -43.5t35 -26.5l55 -14h-231l381 721q11 20 11 49t-11 51l-295 557q-13 26 -43 39z" />
    <glyph glyph-name="Y" unicode="Y" horiz-adv-x="1007" 
d="M8 1413l-51 21h334l-70 -21q-10 -3 -14.5 -13.5t0.5 -19.5l358 -626q14 -21 29 -21q14 0 27 23q206 386 274 618q5 12 -2.5 24t-20.5 15l-75 21h229l-397 -725q-27 -52 -27 -107v-532q0 -19 10.5 -34.5t28.5 -19.5l45 -16h-311l47 16q17 4 28 19.5t11 34.5v528
q0 48 -29 104l-391 682q-10 22 -33 29z" />
    <glyph glyph-name="Z" unicode="Z" horiz-adv-x="872" 
d="M92 1434h748l-639 -1354q-10 -22 -0.5 -36.5t32.5 -14.5q134 3 249 19t183 36t116.5 39.5t67.5 32.5l19 14l-57 -170h-805l639 1354q11 22 1.5 36t-34.5 13q-127 -4 -233 -19.5t-167 -35.5t-103.5 -39t-58.5 -32l-15 -13z" />
    <glyph glyph-name="bracketleft" unicode="[" horiz-adv-x="325" 
d="M459 -326h-367v1917h367v-28h-197q-12 0 -20.5 -8.5t-8.5 -20.5v-1802q0 -12 8.5 -20.5t20.5 -8.5h197v-29z" />
    <glyph glyph-name="backslash" unicode="\" horiz-adv-x="776" 
d="M133 1538l541 -1644h-29l-543 1644h31z" />
    <glyph glyph-name="bracketright" unicode="]" horiz-adv-x="325" 
d="M233 -326h-366v29h196q12 0 20.5 8.5t8.5 20.5v1802q0 12 -8.5 20.5t-20.5 8.5h-196v28h366v-1917z" />
    <glyph glyph-name="asciicircum" unicode="^" horiz-adv-x="774" 
d="M47 983l340 447l340 -447h-35l-286 377q-7 10 -19 10q-9 0 -16 -10l-287 -377h-37z" />
    <glyph glyph-name="underscore" unicode="_" horiz-adv-x="778" 
d="M745 76h-712v28h712v-28z" />
    <glyph glyph-name="a" unicode="a" horiz-adv-x="845" 
d="M336 0q-76 0 -142.5 25.5t-112.5 83t-46 137.5q0 123 114.5 209t276.5 86q78 0 113 -2q23 -2 40 13t17 38v74q0 122 -44 189t-122 67q-82 0 -151.5 -50t-81.5 -129l-19 -106l-69 182q131 131 321 131q81 0 148.5 -29t113 -95t45.5 -160v-594q0 -19 10.5 -34.5t28.5 -19.5
l45 -16h-225v43q0 18 -14 18q-11 0 -31 -10q-84 -51 -215 -51zM176 231q0 -53 13.5 -93t31.5 -60t43 -32t41 -14.5t31 -2.5q48 0 88.5 12.5t66 31t46 44.5t31 48.5t17.5 48t8.5 37t2.5 21.5v162q0 24 -16 44.5t-39 23.5q-58 10 -115 10q-103 0 -176.5 -82t-73.5 -199z" />
    <glyph glyph-name="b" unicode="b" horiz-adv-x="868" 
d="M-8 1405l227 29v-578q96 92 240 92q53 0 102.5 -14.5t98 -48.5t84 -84t57.5 -128t22 -175q0 -220 -116.5 -359t-300.5 -139q-61 0 -118 12t-91 26.5t-65.5 35t-39 27.5t-14.5 14v1220q0 19 -11 34.5t-28 21.5zM219 596v-463q0 -1 7 -11.5t23 -26t37 -30.5t53 -25.5
t67 -10.5q121 0 197.5 133t76.5 344q0 192 -59 303t-162 111q-59 0 -107 -30.5t-76 -79t-42.5 -104t-14.5 -110.5z" />
    <glyph glyph-name="c" unicode="c" horiz-adv-x="860" 
d="M733 207l19 106l69 -182q-131 -131 -321 -131q-196 0 -327.5 136t-131.5 339q0 202 131 337.5t328 135.5q190 0 321 -131l-69 -182l-19 106q-17 80 -83 129.5t-150 49.5q-135 0 -226.5 -127.5t-91.5 -317.5q0 -191 91.5 -318.5t226.5 -127.5q84 0 150 49t83 129z" />
    <glyph glyph-name="d" unicode="d" horiz-adv-x="870" 
d="M461 0q-183 0 -299.5 139t-116.5 359q0 120 32.5 210.5t86.5 140.5t115.5 74.5t128.5 24.5q115 0 198 -57q13 -10 23 -10q20 0 20 30v424q0 19 -11 34.5t-28 21.5l-47 14l228 29v-1319q-7 -7 -15 -14t-39.5 -27.5t-65.5 -35t-91 -26.5t-119 -12zM408 920
q-102 0 -162 -111.5t-60 -302.5q0 -211 76.5 -344t198.5 -133q76 0 132 44t56 117v463q-38 189 -150 246q-41 21 -91 21z" />
    <glyph glyph-name="e" unicode="e" horiz-adv-x="864" 
d="M733 207l19 106l69 -182q-131 -131 -321 -131q-196 0 -327.5 136t-131.5 339q0 204 112 338.5t289 134.5q110 0 198 -57t134.5 -149t46.5 -199h-579q-23 0 -40.5 -10.5t-17.5 -24.5q-2 -10 -2 -33q0 -191 91.5 -318.5t226.5 -127.5q84 0 150 49t83 129zM197 627
q-4 -23 10 -39.5t37 -16.5h379q23 0 38.5 16.5t12.5 39.5q-14 133 -76.5 213t-155.5 80q-89 0 -154.5 -80t-90.5 -213z" />
    <glyph glyph-name="f" unicode="f" horiz-adv-x="602" 
d="M31 0l47 16q17 4 28 19.5t11 34.5v794q0 23 -13 39.5t-30 16.5h-43v28h43q17 0 30 17.5t13 40.5v143q0 129 78.5 207t210.5 78q155 0 264 -131l-70 -183l-20 123q-9 65 -59.5 113.5t-114.5 48.5q-69 0 -108.5 -68.5t-39.5 -187.5v-143q0 -24 16 -41t39 -17h260l29 -84
q-7 5 -24 12t-91 22t-174 20q-23 0 -39 -16.5t-16 -39.5v-792q0 -19 10.5 -34.5t28.5 -19.5l45 -16h-311z" />
    <glyph glyph-name="g" unicode="g" horiz-adv-x="954" 
d="M729 -465q10 3 14.5 14t-0.5 21l-18 33q-6 12 -20 12q-17 0 -39 -16q-102 -84 -256 -84q-173 0 -273 89t-100 208q0 74 30 139.5t80 112t98.5 78t102.5 55.5q42 21 -2 32q-138 34 -223.5 130.5t-85.5 222.5q0 157 127 261.5t317 104.5q64 0 114.5 48.5t59.5 113.5l21 125
l69 -184q-51 -61 -106 -88q-42 -25 4 -37q127 -39 204 -131.5t77 -212.5q0 -142 -104.5 -243.5t-266.5 -121.5q-63 -4 -109 -29q-32 -18 -63.5 -40t-69.5 -59.5t-66 -79.5t-47.5 -101t-19.5 -123q0 -97 60.5 -169.5t171.5 -72.5q138 0 229 113q15 17 16 46t-10 50l-151 277
q-18 30 -50 43l-41 16h332l-69 -20q-10 -3 -15 -13.5t0 -19.5l252 -461q15 -30 47 -43l41 -16h-332zM178 582q0 -146 87 -243t216 -97t215 97t86 243q0 145 -86 241.5t-215 96.5t-216 -96.5t-87 -241.5z" />
    <glyph glyph-name="h" unicode="h" horiz-adv-x="897" 
d="M338 0h-311l47 16q17 4 28 19.5t11 34.5v1265q0 19 -11 34.5t-28 21.5l-47 14l227 29v-525q0 -28 18 -28q8 0 25 10q80 57 195 57q127 0 211.5 -72.5t84.5 -181.5v-624q0 -19 11 -34.5t28 -19.5l47 -16h-311l45 16q18 4 28.5 19.5t10.5 34.5v624q0 100 -43 163t-112 63
q-59 0 -106.5 -30.5t-75 -79t-42 -104t-14.5 -110.5v-526q0 -19 10.5 -34.5t28.5 -19.5z" />
    <glyph glyph-name="i" unicode="i" horiz-adv-x="370" 
d="M78 16q17 4 28 19.5t11 34.5v782q0 39 -39 53l-47 15l227 28v-878q0 -19 10.5 -34.5t28.5 -19.5l45 -16h-311zM186 1059q-37 0 -62.5 25.5t-25.5 62.5t25.5 62.5t62.5 25.5t62.5 -25.5t25.5 -62.5t-25.5 -62.5t-62.5 -25.5z" />
    <glyph glyph-name="j" unicode="j" horiz-adv-x="333" 
d="M70 905l-47 15l227 28v-1095q0 -84 -28.5 -150.5t-76.5 -106.5t-106.5 -60.5t-122.5 -20.5v14q91 0 142 86t51 238v999q0 39 -39 53zM178 1059q-36 0 -62 26t-26 62t26 62t62 26q37 0 62.5 -25.5t25.5 -62.5t-25.5 -62.5t-62.5 -25.5z" />
    <glyph glyph-name="k" unicode="k" horiz-adv-x="890" 
d="M74 1391l-47 14l227 29v-629q0 -89 61 -163.5t148 -74.5q40 0 71 17t50 47t30 63t17 72l16 119q3 14 -6 27t-23 18l-75 18h268l-33 -14q-29 -13 -35 -45l-18 -98q-31 -158 -137 -220q-21 -13 -28.5 -31.5t3.5 -39.5l242 -447q16 -26 41 -35l45 -18h-332l43 12
q22 6 31 26.5t-2 39.5l-232 424q-20 42 -80 71q-5 2 -13 9l-9 6q-17 10 -25 10q-18 0 -18 -31v-497q0 -19 10.5 -34.5t28.5 -19.5l45 -16h-311l47 16q17 4 28 19.5t11 34.5v1265q0 19 -11 34.5t-28 21.5z" />
    <glyph glyph-name="l" unicode="l" horiz-adv-x="366" 
d="M74 16q17 4 28 19.5t11 34.5v1265q0 19 -11 34.5t-28 21.5l-47 14l227 29v-1364q0 -19 10.5 -34.5t28.5 -19.5l45 -16h-311z" />
    <glyph glyph-name="m" unicode="m" horiz-adv-x="1437" 
d="M31 920l227 28v-47q0 -22 16 -22q10 0 27 10q78 59 195 59q144 0 231 -90q16 -16 35 -16t35 16q94 90 235 90q127 0 212 -72.5t85 -181.5v-624q0 -19 11 -34.5t28 -19.5l47 -16h-313l47 16q17 4 28 19.5t11 34.5v624q0 100 -43.5 163t-112.5 63q-59 0 -106 -30.5t-75 -79
t-43 -104t-15 -110.5v-526q0 -19 10.5 -34.5t27.5 -19.5l48 -16h-312l45 16q18 4 28.5 19.5t10.5 34.5v624q0 100 -43 163t-112 63q-59 0 -106.5 -30.5t-75 -79t-42 -104t-14.5 -110.5v-526q0 -19 10.5 -34.5t28.5 -19.5l45 -16h-311l47 16q17 4 28 19.5t11 34.5v782
q0 39 -39 53z" />
    <glyph glyph-name="n" unicode="n" horiz-adv-x="901" 
d="M342 0h-311l47 16q17 4 28 19.5t11 34.5v782q0 39 -39 53l-47 15l227 28v-47q0 -22 14 -22q11 0 29 12q80 57 195 57q127 0 212 -72.5t85 -181.5v-624q0 -19 10.5 -34.5t27.5 -19.5l48 -16h-312l45 16q18 4 28.5 19.5t10.5 34.5v624q0 100 -43 163t-112 63
q-59 0 -106.5 -30.5t-75 -79t-42 -104t-14.5 -110.5v-526q0 -19 10.5 -34.5t28.5 -19.5z" />
    <glyph glyph-name="o" unicode="o" horiz-adv-x="999" 
d="M500 0q-196 0 -327.5 136t-131.5 339q0 202 131 337.5t328 135.5q195 0 325.5 -135.5t130.5 -337.5q0 -203 -130.5 -339t-325.5 -136zM500 920q-135 0 -226.5 -127.5t-91.5 -317.5q0 -191 91.5 -318.5t226.5 -127.5t225 127t90 319q0 191 -90 318t-225 127z" />
    <glyph glyph-name="p" unicode="p" horiz-adv-x="870" 
d="M305 -485h-311l47 16q39 14 39 53v1250q7 7 15 14t39 27t65 34.5t91 26.5t118 12q184 0 300.5 -138.5t116.5 -358.5q0 -96 -22 -174t-57.5 -128.5t-83.5 -85t-98 -49t-103 -14.5q-114 0 -197 57q-18 11 -24 11q-19 0 -19 -31v-453q0 -41 39 -53zM408 920
q-76 0 -131.5 -43.5t-55.5 -116.5v-465q36 -178 140 -239q45 -27 100 -27q103 0 162 110.5t59 302.5q0 212 -76 345t-198 133z" />
    <glyph glyph-name="q" unicode="q" horiz-adv-x="870" 
d="M45 451q0 219 116.5 358t299.5 139q62 0 119 -12t91.5 -26.5t65.5 -34.5t39 -27t15 -14v-1250q0 -40 38 -53l48 -16h-314l47 16q39 14 39 53v510q-94 -94 -241 -94q-67 0 -128.5 24.5t-115.5 75.5t-86.5 141.5t-32.5 209.5zM461 920q-122 0 -198.5 -133t-76.5 -345
q0 -190 60 -301.5t162 -111.5q60 0 108 30t76 78.5t42.5 103.5t14.5 111v463q0 1 -7 11.5t-23 26.5t-37 31t-53 25.5t-68 10.5z" />
    <glyph glyph-name="r" unicode="r" horiz-adv-x="681" 
d="M25 920l227 28v-35q0 -14 10 -14q13 0 33 14q50 35 123 35q69 0 137 -35t115 -96l-70 -182l-20 129q-10 61 -54.5 108.5t-103.5 47.5q-49 0 -85.5 -39t-53 -92t-24 -89t-7.5 -47v-583q0 -19 10.5 -34.5t28.5 -19.5l45 -16h-311l47 16q17 4 28 19.5t11 34.5v782
q0 39 -39 53z" />
    <glyph glyph-name="s" unicode="s" horiz-adv-x="749" 
d="M383 0q-57 0 -113.5 13.5t-107.5 41.5t-83 78t-32 115q0 73 46.5 127t115.5 86q47 23 4 51q-67 41 -105 91t-38 118q0 92 70.5 159.5t195.5 67.5q190 0 321 -131l-69 -182l-19 104q-12 80 -81 130.5t-152 50.5q-61 0 -93 -35.5t-32 -96.5q0 -64 48.5 -116t152.5 -111
q13 -8 49 -27.5t53 -29.5t48.5 -31t48 -35.5t39 -38.5t33.5 -46.5t19.5 -51.5t8.5 -61q0 -105 -91.5 -172.5t-236.5 -67.5zM328 446q-3 3 -9 3q-28 0 -55 -27q-76 -68 -76 -174q0 -62 19.5 -107t51 -68t62.5 -33.5t62 -10.5q77 0 131.5 36t54.5 105q0 83 -53.5 142
t-171.5 126q-3 1 -8 4t-8 4z" />
    <glyph glyph-name="t" unicode="t" horiz-adv-x="684" 
d="M109 920h-86v28h86v277l141 28v-247q0 -24 16 -41t39 -17h277l26 -84q-108 39 -303 51q-23 1 -39 -14.5t-16 -38.5v-577q0 -119 39 -187.5t108 -68.5q64 0 114.5 48t59.5 113l21 123l70 -182q-109 -131 -265 -131q-132 0 -210 78t-78 207v635z" />
    <glyph glyph-name="u" unicode="u" horiz-adv-x="880" 
d="M18 920l228 28v-694q0 -100 43 -162.5t112 -62.5q72 0 128 49t83 117.5t27 138.5v518q0 41 -39 53l-45 15l225 28v-878q0 -19 11 -34.5t28 -19.5l47 -16h-227v47q0 25 -16 25q-11 0 -27 -13q-83 -59 -195 -59q-127 0 -212 72.5t-85 181.5v598q0 40 -38 53z" />
    <glyph glyph-name="v" unicode="v" horiz-adv-x="768" 
d="M20 934l-36 14h319l-65 -16q-15 -5 -23 -19.5t-4 -31.5l231 -721q6 -21 17 -21q10 0 16 21q143 461 187 708q3 22 -8.5 41t-32.5 25l-62 14h201l-285 -889l2 -6q6 -24 31 -35l43 -18h-207l-285 891q-10 30 -39 43z" />
    <glyph glyph-name="w" unicode="w" horiz-adv-x="1136" 
d="M20 934l-36 14h319l-65 -16q-15 -5 -23 -19.5t-4 -31.5l231 -721q6 -21 17 -21q10 0 16 21q49 155 74 248q15 57 -2 108l-119 375q-10 30 -39 43l-37 14h408l-84 -260q-8 -22 -8 -53.5t8 -54.5l135 -420q6 -21 16 -21q11 0 17 21q141 454 186 708q3 22 -9 41t-34 25
l-59 14h200l-286 -889l2 -6q10 -26 33 -35l41 -18h-205l-111 348q-7 23 -18 23q-10 0 -17 -23l-92 -289l2 -6q6 -24 31 -35l43 -18h-207l-285 891q-10 30 -39 43zM606 932q-17 -4 -24.5 -19t-1.5 -32l34 -107q6 -22 15 -22q8 0 14 24q16 76 19 92q3 22 -8.5 41t-32.5 25h-5z
" />
    <glyph glyph-name="x" unicode="x" horiz-adv-x="743" 
d="M-12 948h329l-67 -18q-12 -4 -16 -15.5t2 -21.5l145 -277q10 -20 25 -20q13 0 26 22q72 157 98 246q8 23 -3.5 44.5t-34.5 27.5l-52 12h203l-192 -362q-11 -22 -11 -51.5t11 -49.5l225 -428q16 -29 47 -41l41 -16h-332l70 20q11 3 15.5 13.5t-1.5 21.5l-178 338
q-10 23 -27 23q-22 0 -73 -123.5t-78 -206.5q-8 -24 3.5 -45.5t35.5 -28.5l47 -12h-201l223 424q10 22 10 51t-10 49l-194 367q-14 32 -45 41z" />
    <glyph glyph-name="y" unicode="y" horiz-adv-x="741" 
d="M-16 948h319l-55 -14q-20 -6 -30.5 -24t-4.5 -38l215 -667q10 -23 18 -23q10 0 17 23q25 76 29 94q111 344 145 571q3 22 -9 40t-34 22l-64 16h201l-377 -1177q-9 -27 -16.5 -47.5t-22.5 -55t-30.5 -60t-39.5 -55.5t-50 -49t-61 -32t-73 -13l-28 197l14 -27
q13 -26 43 -26h4q56 4 97.5 21.5t69 50t44 63t33.5 76.5q18 57 41 133q7 22 5 37.5t-13 15.5h-27l-285 887q-10 34 -43 47z" />
    <glyph glyph-name="z" unicode="z" horiz-adv-x="632" 
d="M41 864l29 84h544l-407 -868q-11 -22 -1.5 -36.5t34.5 -14.5q126 4 219.5 18t124.5 27l30 12l-28 -86h-574l408 868q11 22 1.5 36.5t-32.5 13.5q-95 -4 -182 -17.5t-127 -24.5z" />
    <glyph glyph-name="braceleft" unicode="{" horiz-adv-x="462" 
d="M236 459q0 37 -17.5 66.5t-41.5 46t-50.5 28t-43 15t-20.5 3.5v29l7 1q8 2 17.5 5t23 7.5t27 11t28 15.5t27 21t22.5 26t15.5 33t5.5 40q0 62 -33 223q-1 5 -7.5 34t-8.5 37.5t-7 34t-6.5 38.5t-4.5 34.5t-4 39.5t-1 36q0 73 29.5 132.5t79 97t110.5 57.5t127 20v-28
q-32 0 -64.5 -8t-65 -25.5t-53 -52t-20.5 -80.5q0 -62 33 -223q37 -169 37 -254q0 -105 -60.5 -173.5t-146.5 -103.5q-23 -10 0 -20q85 -33 146 -102.5t61 -174.5q0 -85 -37 -254q-33 -161 -33 -223q0 -46 20.5 -80.5t53 -52t65 -25.5t64.5 -8v-29q-89 0 -166 34t-128.5 106
t-51.5 168q0 18 1 36t4 39.5t4.5 34.5t6.5 38.5t7 34t8.5 37.5t7.5 34q33 161 33 223z" />
    <glyph glyph-name="bar" unicode="|" horiz-adv-x="212" 
d="M121 -174h-29v1778h29v-1778z" />
    <glyph glyph-name="braceright" unicode="}" horiz-adv-x="462" 
d="M-49 -297q32 0 64.5 8t65.5 25.5t54 52t21 80.5q0 71 -35 223q-37 169 -37 254q0 105 61 174.5t146 102.5q23 10 0 20q-86 35 -146.5 103.5t-60.5 173.5q0 85 37 254q35 152 35 223q0 46 -21 80.5t-54 52t-65.5 25.5t-64.5 8v28q66 0 127 -20t110.5 -57.5t79 -97
t29.5 -132.5q0 -85 -37 -254q-35 -152 -35 -223q0 -21 5.5 -40t15.5 -33t22 -26t26.5 -21t28 -15.5t27 -11t23 -7.5t17.5 -5l7 -1v-29q-4 0 -20 -3.5t-43 -15t-50.5 -28t-41 -46t-17.5 -66.5q0 -71 35 -223q37 -169 37 -254q0 -96 -51.5 -168t-128.5 -106t-166 -34v29z" />
    <glyph glyph-name="uni00A0" unicode="&#xa0;" horiz-adv-x="563" 
 />
    <glyph glyph-name="exclamdown" unicode="&#xa1;" horiz-adv-x="327" 
d="M168 1030q-39 0 -64 24t-28 64q-1 42 22.5 69.5t59.5 29.5t62.5 -23t29.5 -66q1 -42 -22.5 -69t-59.5 -29zM150 920h26l57 -1137h-141z" />
    <glyph glyph-name="cent" unicode="&#xa2;" horiz-adv-x="917" 
d="M477 246q-178 17 -293.5 149t-115.5 322t115.5 322t293.5 149q12 2 20.5 10.5t8.5 20.5v116h29v-116q0 -12 8 -20.5t20 -8.5q169 -15 285 -131l-70 -182l-18 106q-13 65 -55 107q-84 73 -199 73q-128 -11 -212.5 -137t-84.5 -309t84.5 -309.5t212.5 -137.5q94 0 164.5 46
t89.5 135l18 104l70 -182q-117 -117 -285 -129q-12 -2 -20 -10.5t-8 -20.5v-117h-29v119q0 11 -8.5 20.5t-20.5 10.5z" />
    <glyph glyph-name="sterling" unicode="&#xa3;" horiz-adv-x="980" 
d="M80 506v29h178q12 0 18 7.5t3 18.5q-29 74 -78 164q-3 7 -18.5 36t-20 38l-17.5 35t-18 38.5t-15 36t-14 39.5t-9 37t-7 40.5t-2 39.5q0 158 103 263.5t257 105.5q145 0 268.5 -66.5t209.5 -187.5l-89 -172l-18 106q-17 118 -131.5 204.5t-235.5 86.5q-98 0 -160.5 -78
t-62.5 -201q0 -65 27 -136t78 -167q2 -4 18 -34t20 -38.5t17 -34.5t18.5 -39t14 -35t13.5 -41t9 -38q1 -12 11 -20t22 -8h147v-29h-145q-12 0 -20.5 -8.5t-8.5 -20.5q-7 -165 -192 -303q-20 -15 -17.5 -24t27.5 -9q228 3 392.5 17t215.5 26l50 13l-29 -199h-791v143
q126 86 171.5 166.5t31.5 169.5q-1 12 -12 20.5t-23 8.5h-186z" />
    <glyph glyph-name="yen" unicode="&#xa5;" horiz-adv-x="1273" 
d="M102 1434h334l-69 -21q-10 -3 -15 -13.5t0 -19.5l359 -626q14 -21 28 -21q17 0 27 21q210 394 274 620q5 12 -2 24t-20 15l-76 21h229l-397 -725q-26 -50 -26 -107v-20q0 -9 8 -15t20 -6h201v-29h-201q-12 0 -20 -8t-8 -20v-187q0 -12 8 -20t20 -8h201v-29h-201
q-12 0 -20 -8.5t-8 -20.5v-161q0 -44 38 -56l45 -14h-311l47 14q17 6 28 21.5t11 34.5v161q0 12 -8.5 20.5t-19.5 8.5h-224v29h224q11 0 19.5 8t8.5 20v187q0 12 -8.5 20t-19.5 8h-224v29h224q11 0 19.5 6t8.5 13v16q0 52 -28 106l-392 682q-10 19 -32 29z" />
    <glyph glyph-name="section" unicode="&#xa7;" horiz-adv-x="1030" 
d="M670 143q-23 -6 -25 -17.5t17 -23.5q55 -37 93.5 -70t75.5 -76t55.5 -94.5t18.5 -109.5q0 -62 -23.5 -119.5t-67 -103.5t-113.5 -74t-156 -28q-131 0 -242.5 67t-185.5 187l86 172l18 -125q25 -110 119.5 -191.5t204.5 -81.5q62 0 107 23t68 60t33.5 74t10.5 73
q0 48 -16.5 93t-41.5 80t-68 73t-82 66t-97 66q-149 94 -196 131q-158 122 -183 264q-3 13 -4 27q-2 8 -2 29q0 138 75.5 227.5t210.5 120.5q23 6 26.5 17.5t-15.5 23.5q-56 37 -95 70t-76 76t-56 94.5t-19 109.5q0 62 23.5 119.5t67.5 104t114.5 74.5t156.5 28
q130 0 241 -67t187 -187l-86 -172l-18 125q-25 110 -119.5 191t-204.5 81q-62 0 -107 -23t-68 -60t-33.5 -73.5t-10.5 -72.5q0 -61 22.5 -114t68.5 -100t94 -83t120 -82q147 -94 187 -124q157 -119 189 -254q5 -21 7 -44q0 -4 1 -13.5t1 -14.5q0 -139 -75.5 -228.5
t-212.5 -120.5zM549 174q83 0 137 25q117 77 129 245q-4 49 -23.5 94.5t-47 81.5t-70.5 73.5t-82.5 65.5t-93.5 62q-2 2 -7.5 5t-7.5 5q-88 0 -137 -26q-119 -75 -129 -244q3 -49 23 -94.5t47.5 -81.5t71 -74t82.5 -66t94 -63q8 -4 14 -8z" />
    <glyph glyph-name="copyright" unicode="&#xa9;" horiz-adv-x="966" 
d="M506 1024q-94 0 -156.5 -88.5t-62.5 -220.5t62.5 -220.5t156.5 -88.5q57 0 105 33.5t57 88.5l14 74l47 -127q-93 -90 -223 -90q-135 0 -226.5 94.5t-91.5 235.5t91.5 235t226.5 94q131 0 223 -92l-47 -127l-14 74q-7 56 -55 90.5t-107 34.5zM483 1128q170 0 292 -121.5
t122 -291.5q0 -171 -121.5 -292.5t-292.5 -121.5t-292 121.5t-121 292.5q0 170 121.5 291.5t291.5 121.5zM483 330q160 0 272.5 112.5t112.5 272.5t-112.5 272.5t-272.5 112.5t-272.5 -112.5t-112.5 -272.5t112.5 -272.5t272.5 -112.5z" />
    <glyph glyph-name="ordfeminine" unicode="&#xaa;" horiz-adv-x="684" 
d="M283 758q-86 0 -150.5 45.5t-64.5 130.5q0 86 81.5 147.5t196.5 61.5q55 0 80 -2q17 0 29 11t12 28v51q0 88 -31 135t-88 47q-70 0 -127 -51q-29 -29 -39 -76l-14 -76l-49 131q96 93 229 93q90 0 154.5 -52.5t64.5 -150.5v-424q0 -13 8 -23.5t21 -13.5l33 -12h-162v30
q0 13 -12 13q-9 0 -21 -6q-56 -37 -151 -37zM346 1124q-74 0 -126 -58.5t-52 -141.5q0 -47 13.5 -79t34.5 -45t36.5 -17.5t30.5 -4.5q47 0 82.5 17t53.5 38t30 51t14.5 42.5t3.5 25.5v115q0 20 -12 32.5t-34.5 17.5t-37 6t-37.5 1z" />
    <glyph glyph-name="guillemotleft" unicode="&#xab;" horiz-adv-x="790" 
d="M285 717l446 340v-37l-377 -287q-9 -7 -9 -17t9 -18l377 -286v-35zM45 717l447 340v-37l-377 -287q-9 -7 -9 -17t9 -18l377 -286v-35z" />
    <glyph glyph-name="uni00AD" unicode="&#xad;" horiz-adv-x="0" 
 />
    <glyph glyph-name="registered" unicode="&#xae;" horiz-adv-x="966" 
d="M70 715q0 170 121.5 291.5t291.5 121.5t292 -121.5t122 -291.5t-122 -292t-292 -122t-291.5 122t-121.5 292zM483 1100q-160 0 -272.5 -112.5t-112.5 -272.5t112.5 -272.5t272.5 -112.5t272.5 112.5t112.5 272.5t-112.5 272.5t-272.5 112.5zM307 1010l-20 6h223
q60 0 102.5 -41t42.5 -98q0 -52 -34.5 -91t-85.5 -47q-23 -3 -13 -24l152 -279q7 -10 18 -16l19 -6h-140l27 8q5 2 7 6.5t-1 9.5l-160 295q-8 16 -32 35q-14 14 -23 14q-6 0 -6 -10v-330q0 -16 16 -22l19 -6h-131l20 6q17 7 17 22v545q0 16 -17 23zM383 1004v-113
q0 -47 41 -95t86 -48q35 0 60.5 37.5t25.5 91.5q0 52 -25.5 89.5t-60.5 37.5h-127z" />
    <glyph glyph-name="degree" unicode="&#xb0;" horiz-adv-x="321" 
d="M231 1391q32 -32 35 -80q0 -49 -26 -81.5t-74 -35.5q-49 0 -78.5 28t-32.5 78q-3 49 27 82q29 32 72 35q47 0 77 -26zM158 1223q37 0 58.5 24t21.5 62q-3 40 -27 61q-19 19 -51 19q-33 0 -58 -25q-21 -28 -18 -64q3 -32 23 -54.5t51 -22.5z" />
    <glyph glyph-name="twosuperior" unicode="&#xb2;" horiz-adv-x="546" 
d="M272 940q-42 -38 -60 -54.5t-45.5 -46.5t-41.5 -55q-2 -4 -2 -10q2 -4 12 -4q114 1 195.5 7.5t105.5 12.5l25 7l12 6l-18 -121h-387v6q0 44 12.5 85t40.5 82t49 66.5t61 69.5l9 8q74 81 110.5 140.5t36.5 122.5q0 62 -29 102.5t-75 40.5q-42 0 -79 -28.5t-63 -82.5
q-3 -6 -8 -45q-3 -36 -6 -45l-6 -14l-53 106l2 4q38 63 94.5 98.5t120.5 35.5q85 0 137.5 -54.5t52.5 -140.5q0 -45 -14.5 -85.5t-47 -78.5t-56.5 -61t-70 -62z" />
    <glyph glyph-name="threesuperior" unicode="&#xb3;" horiz-adv-x="587" 
d="M371 1094q66 -25 106.5 -79t40.5 -120q0 -88 -68 -150.5t-165 -62.5q-64 0 -120.5 35t-94.5 98l-2 4l55 111l14 -84q7 -33 23 -55q52 -80 125 -80q60 0 102.5 54t42.5 130t-42.5 130t-102.5 54h-9v29h9q41 0 70.5 44t29.5 105t-29.5 104.5t-70.5 43.5q-73 0 -125 -80
q-16 -22 -23 -55l-14 -86l-55 112l2 4q38 63 94.5 98.5t120.5 35.5q76 0 131 -52.5t55 -124.5q0 -51 -27 -92.5t-75 -64.5l-4 -4q2 0 6 -2z" />
    <glyph glyph-name="periodcentered" unicode="&#xb7;" horiz-adv-x="280" 
d="M135 809q39 0 64 -24t28 -64q1 -42 -22.5 -68.5t-59.5 -29.5q-37 -2 -63 23t-29 67q-1 41 22.5 67.5t59.5 28.5z" />
    <glyph glyph-name="onesuperior" unicode="&#xb9;" horiz-adv-x="346" 
d="M217 725q0 -17 14 -20l66 -23h-248l66 23q14 3 14 20v631v16q-20 -13 -23 -35l-16 -61l-14 94l92 64h49v-709z" />
    <glyph glyph-name="ordmasculine" unicode="&#xba;" horiz-adv-x="712" 
d="M356 1434q52 0 100 -20.5t91 -62.5t68.5 -118t25.5 -176q0 -80 -17 -145t-45.5 -107t-66 -70.5t-76.5 -40.5t-80 -12q-52 0 -100 20.5t-90.5 62.5t-68 117.5t-25.5 174.5q0 100 25.5 176t68 118t90.5 62.5t100 20.5zM553 1057q0 159 -53.5 253.5t-143.5 94.5t-143 -94.5
t-53 -253.5q0 -158 53 -252t143 -94t143.5 94.5t53.5 251.5z" />
    <glyph glyph-name="guillemotright" unicode="&#xbb;" horiz-adv-x="790" 
d="M57 377v35l377 286q9 8 9 18.5t-9 16.5l-377 287v37l447 -340zM297 1057l446 -340l-446 -340v35l377 286q9 8 9 18.5t-9 16.5l-377 287v37z" />
    <glyph glyph-name="questiondown" unicode="&#xbf;" horiz-adv-x="931" 
d="M459 1030q-36 -2 -62.5 23t-29.5 65q-1 42 22.5 69.5t59.5 29.5q39 0 64 -24.5t28 -64.5q1 -42 -22.5 -69t-59.5 -29zM741 207l88 -172q-71 -120 -176.5 -187t-228.5 -67q-163 0 -265 96t-102 260q0 35 3 66.5t11.5 60.5t15.5 51t23 49t24.5 42t30 41t30 36t33.5 38
t32 36q44 49 69.5 81.5t54.5 80t42.5 97t13.5 104.5h27q0 -71 -11.5 -133.5t-39.5 -126t-43 -92t-54 -95.5q-61 -102 -90.5 -183t-29.5 -184q0 -133 62 -214.5t163 -81.5t192.5 84.5t106.5 187.5z" />
    <glyph glyph-name="Agrave" unicode="&#xc0;" horiz-adv-x="1034" 
d="M252 0h-256l407 1270q16 61 11 76l-8 22q-9 36 -48 53l-30 13h207l440 -1375q9 -30 39 -43l37 -16h-320l76 20q12 3 17.5 13.5t2.5 21.5l-139 432q-8 23 -29.5 39.5t-44.5 16.5h-319q-23 0 -43 -17.5t-25 -40.5q-49 -248 -57 -407q-1 -23 11 -41.5t32 -24.5zM256 627
q-5 -23 8.5 -40.5t36.5 -17.5h305q23 0 34 16t5 40l-192 598q-5 22 -17 22q-10 0 -18 -22q-102 -330 -162 -596zM551 1532l-209 123l49 63l170 -170z" />
    <glyph glyph-name="Aacute" unicode="&#xc1;" horiz-adv-x="1034" 
d="M252 0h-256l407 1270q16 61 11 76l-8 22q-9 36 -48 53l-30 13h207l440 -1375q9 -30 39 -43l37 -16h-320l76 20q12 3 17.5 13.5t2.5 21.5l-139 432q-8 23 -29.5 39.5t-44.5 16.5h-319q-23 0 -43 -17.5t-25 -40.5q-49 -248 -57 -407q-1 -23 11 -41.5t32 -24.5zM256 627
q-5 -23 8.5 -40.5t36.5 -17.5h305q23 0 34 16t5 40l-192 598q-5 22 -17 22q-10 0 -18 -22q-102 -330 -162 -596zM354 1532l-12 16l172 170l47 -63z" />
    <glyph glyph-name="Acircumflex" unicode="&#xc2;" horiz-adv-x="1034" 
d="M252 0h-256l407 1270q16 61 11 76l-8 22q-9 36 -48 53l-30 13h207l440 -1375q9 -30 39 -43l37 -16h-320l76 20q12 3 17.5 13.5t2.5 21.5l-139 432q-8 23 -29.5 39.5t-44.5 16.5h-319q-23 0 -43 -17.5t-25 -40.5q-49 -248 -57 -407q-1 -23 11 -41.5t32 -24.5zM256 627
q-5 -23 8.5 -40.5t36.5 -17.5h305q23 0 34 16t5 40l-192 598q-5 22 -17 22q-10 0 -18 -22q-102 -330 -162 -596zM238 1532l172 207h86l170 -207l-13 -19l-178 140q-9 6 -22 6q-14 0 -23 -6l-180 -137z" />
    <glyph glyph-name="Atilde" unicode="&#xc3;" horiz-adv-x="1032" 
d="M250 0h-256l407 1270q16 61 11 76l-9 22q-9 36 -47 53l-30 13h206l441 -1375q9 -30 39 -43l37 -16h-320l76 20q12 3 17.5 13.5t2.5 21.5l-139 432q-8 23 -29.5 39.5t-44.5 16.5h-319q-23 0 -43.5 -16.5t-24.5 -39.5q-48 -247 -57 -409q-1 -23 10.5 -40.5t32.5 -25.5z
M254 627q-5 -23 8.5 -40.5t36.5 -17.5h305q23 0 34 16t5 40l-192 598q-5 22 -17 22q-10 0 -18 -22q-102 -330 -162 -596zM317 1569h-16q0 114 64 114q12 0 29 -5t25 -8.5t31.5 -15t24.5 -12.5q46 -22 66 -22q17 0 27.5 13.5t19.5 43.5h10q0 -61 -14 -84.5t-41 -23.5
q-6 0 -13.5 1.5t-13.5 3t-15.5 5.5t-14.5 6t-16 8.5t-15.5 9t-17.5 10t-17 9.5q-31 16 -51 16q-22 0 -33 -16.5t-19 -52.5z" />
    <glyph glyph-name="Adieresis" unicode="&#xc4;" horiz-adv-x="1032" 
d="M-6 0l407 1270q16 61 11 76l-9 22q-9 36 -47 53l-30 13h206l441 -1375q9 -30 39 -43l37 -16h-320l76 20q12 3 17.5 13.5t2.5 21.5l-139 432q-8 23 -29.5 39.5t-44.5 16.5h-319q-23 0 -43.5 -16.5t-24.5 -39.5q-48 -247 -57 -409q-1 -23 10.5 -40.5t32.5 -25.5l39 -12
h-256zM254 627q-5 -23 8.5 -40.5t36.5 -17.5h305q23 0 34 16t5 40l-192 598q-5 22 -17 22q-10 0 -18 -22q-102 -330 -162 -596zM504 1622q-3 41 21 67.5t61 28.5q40 0 64 -24t26 -64q3 -42 -20.5 -68.5t-61.5 -29.5q-36 -2 -62.5 23t-27.5 67zM223 1622q-1 41 22.5 67.5
t59.5 28.5q39 0 64 -24t28 -64q1 -42 -22.5 -68.5t-59.5 -29.5q-40 0 -65 25t-27 65z" />
    <glyph glyph-name="Aring" unicode="&#xc5;" horiz-adv-x="1032" 
d="M250 0h-256l407 1270q16 61 11 76l-9 22q-9 36 -47 53l-30 13h51q-92 44 -98 157q-3 83 43 135q46 55 118 58q78 0 128 -48t53 -126q6 -83 -43 -135q-18 -23 -54 -41h8l441 -1375q9 -30 39 -43l37 -16h-320l76 20q12 3 17.5 13.5t2.5 21.5l-139 432q-8 23 -29.5 39.5
t-44.5 16.5h-319q-23 0 -43.5 -16.5t-24.5 -39.5q-48 -247 -57 -409q-1 -23 10.5 -40.5t32.5 -25.5zM254 627q-5 -23 8.5 -40.5t36.5 -17.5h305q23 0 34 16t5 40l-192 598q-5 22 -17 22q-10 0 -18 -22q-102 -330 -162 -596zM369 1683q-30 -38 -27 -88q3 -53 34.5 -84.5
t84.5 -31.5q50 3 76 37q31 36 28 90q-3 49 -32.5 81.5t-77.5 32.5h-9q-48 -3 -77 -37z" />
    <glyph glyph-name="AE" unicode="&#xc6;" horiz-adv-x="1484" 
d="M-14 0l667 1327q28 58 13 76q-11 11 -25 14l-45 17h772l27 -113q-6 3 -19 7.5t-59.5 17t-101 23t-145.5 20.5t-191 14q-23 1 -40.5 -15.5t-17.5 -39.5v-398q0 -23 17 -39t41 -16h424l28 -115q-4 3 -12 8t-43.5 18.5t-81.5 24t-130 20.5t-185 13q-23 1 -40.5 -15.5
t-17.5 -39.5v-723q0 -23 17.5 -39.5t40.5 -15.5q122 6 229 22t172.5 35.5t113.5 38t68 31.5l19 12l-58 -170h-827l45 14q18 6 28.5 21.5t10.5 34.5v374q0 25 -16 41.5t-39 16.5h-281q-23 0 -46 -14.5t-32 -36.5q-77 -186 -137 -367q-7 -23 4.5 -44.5t34.5 -27.5l47 -12h-229
zM324 582q-9 -22 0 -37t32 -15h269q23 0 39 16.5t16 41.5v731q-233 -454 -356 -737z" />
    <glyph glyph-name="Ccedilla" unicode="&#xc7;" horiz-adv-x="1236" 
d="M1108 324l14 102l88 -172q-92 -120 -225 -187t-289 -67q-33 0 -49 2q-12 1 -21.5 -6.5t-11.5 -18.5l-14 -90q-1 -12 6 -19t19 -5q30 6 69 6q68 0 111.5 -36.5t46.5 -94.5q3 -62 -35 -103q-42 -45 -106 -45q-39 0 -76.5 10t-55.5 20l-18 9l19 52q2 -3 6.5 -7t18.5 -14.5
t28 -19t35.5 -15t42.5 -6.5q51 0 86 35q29 37 26 82q-3 51 -41 77.5t-88 26.5q-14 0 -30.5 -1t-30.5 -3t-25.5 -4t-18.5 -3l-7 -1l-21 -4l25 156q3 26 -23 34q-233 48 -380.5 242t-147.5 461q0 151 50.5 284.5t138 228t210.5 149.5t262 55q156 0 289 -67t225 -187l-88 -172
l-14 102q-19 85 -85.5 154t-153.5 105t-173 36q-146 0 -265.5 -89.5t-187 -247t-67.5 -351.5t67.5 -351.5t187 -247t265.5 -89.5q86 0 173 36t153.5 105t85.5 154z" />
    <glyph glyph-name="Egrave" unicode="&#xc8;" horiz-adv-x="913" 
d="M70 1417l-47 17h772l28 -113q-7 3 -19.5 7.5t-59.5 17t-102 23t-146 20.5t-191 14q-23 1 -39 -14.5t-16 -40.5v-398q0 -23 16 -39t39 -16h424l29 -115q-4 3 -12 8t-43.5 19t-81.5 24.5t-130.5 20.5t-185.5 12q-23 1 -39 -15t-16 -40v-723q0 -23 16 -39t39 -16
q122 6 229 22t172.5 35.5t113.5 38t68 31.5l19 12l-57 -170h-827l47 16q17 4 28 19.5t11 34.5v1294q0 19 -11 34t-28 19zM563 1532l-207 123l47 63l170 -170z" />
    <glyph glyph-name="Eacute" unicode="&#xc9;" horiz-adv-x="913" 
d="M70 1417l-47 17h772l28 -113q-7 3 -19.5 7.5t-59.5 17t-102 23t-146 20.5t-191 14q-23 1 -39 -14.5t-16 -40.5v-398q0 -23 16 -39t39 -16h424l29 -115q-4 3 -12 8t-43.5 19t-81.5 24.5t-130.5 20.5t-185.5 12q-23 1 -39 -15t-16 -40v-723q0 -23 16 -39t39 -16
q122 6 229 22t172.5 35.5t113.5 38t68 31.5l19 12l-57 -170h-827l47 16q17 4 28 19.5t11 34.5v1294q0 19 -11 34t-28 19zM367 1532l-11 16l170 170l47 -63z" />
    <glyph glyph-name="Ecircumflex" unicode="&#xca;" horiz-adv-x="913" 
d="M70 1417l-47 17h772l28 -113q-7 3 -19.5 7.5t-59.5 17t-102 23t-146 20.5t-191 14q-23 1 -39 -14.5t-16 -40.5v-398q0 -23 16 -39t39 -16h424l29 -115q-4 3 -12 8t-43.5 19t-81.5 24.5t-130.5 20.5t-185.5 12q-23 1 -39 -15t-16 -40v-723q0 -23 16 -39t39 -16
q122 6 229 22t172.5 35.5t113.5 38t68 31.5l19 12l-57 -170h-827l47 16q17 4 28 19.5t11 34.5v1294q0 19 -11 34t-28 19zM262 1516l-10 16l170 207h86l170 -207l-12 -19l-179 140q-9 6 -22 6q-14 0 -23 -6z" />
    <glyph glyph-name="Edieresis" unicode="&#xcb;" horiz-adv-x="913" 
d="M23 0l47 16q17 4 28 19.5t11 34.5v1294q0 19 -11 34t-28 19l-47 17h772l28 -113q-7 3 -19.5 7.5t-59.5 17t-102 23t-146 20.5t-191 14q-23 1 -39 -14.5t-16 -40.5v-398q0 -23 16 -39t39 -16h424l29 -115q-4 3 -12 8t-43.5 19t-81.5 24.5t-130.5 20.5t-185.5 12
q-23 1 -39 -15t-16 -40v-723q0 -23 16 -39t39 -16q122 6 229 22t172.5 35.5t113.5 38t68 31.5l19 12l-57 -170h-827zM238 1622q-1 41 22 67.5t59 28.5q40 0 66 -23.5t27 -64.5q3 -42 -20.5 -68.5t-61.5 -29.5q-36 -2 -62.5 23t-29.5 67zM518 1622q-1 41 22.5 67.5t59.5 28.5
q39 0 64 -24t28 -64q1 -42 -22.5 -68.5t-59.5 -29.5q-37 -2 -63 23t-29 67z" />
    <glyph glyph-name="Igrave" unicode="&#xcc;" horiz-adv-x="358" 
d="M250 70q0 -19 10.5 -34.5t28.5 -19.5l45 -16h-311l47 16q17 4 28 19.5t11 34.5v1294q0 19 -11 34t-28 19l-47 17h311l-45 -17q-18 -4 -28.5 -19t-10.5 -34v-1294zM287 1548l-11 -16l-206 123l47 63z" />
    <glyph glyph-name="Iacute" unicode="&#xcd;" horiz-adv-x="358" 
d="M250 70q0 -19 10.5 -34.5t28.5 -19.5l45 -16h-311l47 16q17 4 28 19.5t11 34.5v1294q0 19 -11 34t-28 19l-47 17h311l-45 -17q-18 -4 -28.5 -19t-10.5 -34v-1294zM287 1655l-207 -123l-10 16l170 170z" />
    <glyph glyph-name="Icircumflex" unicode="&#xce;" horiz-adv-x="358" 
d="M289 1417q-18 -4 -28.5 -19t-10.5 -34v-1294q0 -19 10.5 -34.5t28.5 -19.5l45 -16h-311l47 16q17 4 28 19.5t11 34.5v1294q0 19 -11 34t-28 19l-47 17h311zM221 1739l170 -207l-12 -19l-178 140q-9 6 -23 6q-13 0 -22 -6l-181 -137l-10 16l170 207h86z" />
    <glyph glyph-name="Idieresis" unicode="&#xcf;" horiz-adv-x="360" 
d="M289 1417q-17 -4 -28 -19t-11 -34v-1294q0 -19 11 -34.5t28 -19.5l47 -16h-311l45 16q18 4 28.5 19.5t10.5 34.5v1294q0 19 -10.5 34t-28.5 19l-45 17h311zM127 1630q1 -42 -22.5 -68.5t-59.5 -29.5q-37 -2 -63 23t-29 67q-1 41 22.5 67.5t59.5 28.5q39 0 64 -24t28 -64z
M315 1718q40 0 64.5 -24t26.5 -64q3 -42 -20.5 -68.5t-61.5 -29.5q-36 -2 -63 23t-28 67q-3 41 21 67.5t61 28.5z" />
    <glyph glyph-name="Ntilde" unicode="&#xd1;" horiz-adv-x="983" 
d="M23 1434h172l489 -486q115 -115 164 -315q6 -25 10 -25q2 0 2 23v53q0 391 -115 688q-13 33 -47 43l-65 19h256v-1434h-58q0 214 -15 319q-45 325 -275 571q-16 17 -33 34l-332 327q-13 13 -22 13q-19 0 -19 -29v-109q0 -447 35.5 -701t79.5 -368q10 -30 41 -37l71 -20
h-253v1364q0 19 -11 34t-28 19zM307 1569q0 114 64 114q12 0 29 -5t25 -8.5t31.5 -15t24.5 -12.5q46 -22 66 -22q17 0 27 13.5t18 43.5h12q0 -61 -14 -84.5t-41 -23.5q-6 0 -13.5 1.5t-13.5 3t-15.5 5.5t-14.5 6t-16 8.5t-15.5 9t-17.5 10t-17 9.5q-31 16 -51 16
q-22 0 -32.5 -16.5t-18.5 -52.5h-17z" />
    <glyph glyph-name="Ograve" unicode="&#xd2;" 
d="M696 1434q187 0 338.5 -93t237.5 -257.5t86 -366.5t-86 -366.5t-237.5 -257.5t-338.5 -93q-139 0 -262 55t-210.5 149.5t-138 228t-50.5 284.5t50.5 284.5t138 228t210.5 149.5t262 55zM696 29q146 0 265.5 89.5t187.5 247t68 351.5t-68 351.5t-187.5 247t-265.5 89.5
t-265.5 -89.5t-187 -247t-67.5 -351.5t67.5 -351.5t187 -247t265.5 -89.5zM807 1548l-12 -16l-207 123l47 63z" />
    <glyph glyph-name="Oacute" unicode="&#xd3;" 
d="M696 1434q186 0 337.5 -93t238 -257.5t86.5 -366.5t-86 -366.5t-237.5 -257.5t-338.5 -93q-139 0 -262 55t-210.5 149.5t-138 228t-50.5 284.5t50.5 284.5t138 228t210.5 149.5t262 55zM696 29q146 0 265.5 89.5t187.5 247t68 351.5t-68 351.5t-187.5 247t-265.5 89.5
t-265.5 -89.5t-187 -247t-67.5 -351.5t67.5 -351.5t187 -247t265.5 -89.5zM807 1655l-209 -123l-10 16l170 170z" />
    <glyph glyph-name="Ocircumflex" unicode="&#xd4;" 
d="M696 1434q186 0 337.5 -93t238 -257.5t86.5 -366.5t-86 -366.5t-237.5 -257.5t-338.5 -93q-139 0 -262 55t-210.5 149.5t-138 228t-50.5 284.5t50.5 284.5t138 228t210.5 149.5t262 55zM696 29q146 0 265.5 89.5t187.5 247t68 351.5t-68 351.5t-187.5 247t-265.5 89.5
t-265.5 -89.5t-187 -247t-67.5 -351.5t67.5 -351.5t187 -247t265.5 -89.5zM674 1653l-180 -137l-11 16l170 207h86l170 -207l-12 -19l-178 140q-9 6 -23 6q-13 0 -22 -6z" />
    <glyph glyph-name="Otilde" unicode="&#xd5;" 
d="M696 1434q187 0 338.5 -93t237.5 -257.5t86 -366.5t-86 -366.5t-237.5 -257.5t-338.5 -93q-139 0 -262 55t-210.5 149.5t-138 228t-50.5 284.5t50.5 284.5t138 228t210.5 149.5t262 55zM696 29q146 0 265.5 89.5t187.5 247t68 351.5t-68 351.5t-187.5 247t-265.5 89.5
t-265.5 -89.5t-187 -247t-67.5 -351.5t67.5 -351.5t187 -247t265.5 -89.5zM666 1622q-27 16 -52 16q-20 0 -30.5 -16t-20.5 -53h-16q0 114 65 114q10 0 21 -2.5t24.5 -8t21.5 -9t24 -11.5l20 -10q46 -22 65 -22q31 0 46 57h12q0 -61 -14.5 -84.5t-43.5 -23.5q-10 0 -20 2.5
t-24.5 9t-22 10.5t-28.5 16t-27 15z" />
    <glyph glyph-name="Odieresis" unicode="&#xd6;" 
d="M696 1434q187 0 338.5 -93t237.5 -257.5t86 -366.5t-86 -366.5t-237.5 -257.5t-338.5 -93q-139 0 -262 55t-210.5 149.5t-138 228t-50.5 284.5t50.5 284.5t138 228t210.5 149.5t262 55zM696 29q146 0 265.5 89.5t187.5 247t68 351.5t-68 351.5t-187.5 247t-265.5 89.5
t-265.5 -89.5t-187 -247t-67.5 -351.5t67.5 -351.5t187 -247t265.5 -89.5zM561 1532q-36 -2 -62.5 23t-27.5 67q-3 41 21 67.5t61 28.5q40 0 64 -24t26 -64q3 -42 -20.5 -68.5t-61.5 -29.5zM842 1532q-36 -2 -62.5 23t-29.5 67q-1 41 22 67.5t59 28.5q41 0 65.5 -24
t27.5 -64q1 -42 -22.5 -68.5t-59.5 -29.5z" />
    <glyph glyph-name="multiply" unicode="&#xd7;" horiz-adv-x="575" 
d="M57 504l191 190q17 21 0 41l-191 189l21 20l190 -190q13 -9 21 -9q9 0 18 9l191 190l20 -20l-190 -189q-20 -21 0 -41l190 -190l-20 -19l-191 189q-7 10 -18 10t-21 -10l-190 -189z" />
    <glyph glyph-name="Oslash" unicode="&#xd8;" 
d="M985 1366q171 -84 272 -257t101 -392q0 -202 -86.5 -366.5t-238 -257.5t-337.5 -93q-82 0 -155 18q-6 2 -17 2q-42 0 -55 -40l-29 -86h-28l30 96q7 23 -2.5 45t-31.5 33q-170 85 -271.5 258t-101.5 391q0 151 50.5 284.5t138 228t210.5 149.5t262 55q78 0 156 -19
q6 -2 16 -2q19 0 35.5 11.5t20.5 29.5l28 86h31l-33 -96q-6 -23 3.5 -45.5t31.5 -32.5zM428 121q11 -8 27 -8q30 0 39 30l380 1162q8 22 -1.5 45t-30.5 30q-73 25 -146 25q-146 0 -265.5 -89.5t-187 -247t-67.5 -351.5q0 -193 67.5 -350t184.5 -246zM696 29
q146 0 265.5 89.5t187.5 247t68 351.5q0 193 -67.5 350t-184.5 246q-11 8 -25 8q-30 0 -39 -31l-383 -1161q-8 -22 2 -45.5t33 -30.5q67 -24 143 -24z" />
    <glyph glyph-name="Ugrave" unicode="&#xd9;" horiz-adv-x="1083" 
d="M16 1434h312l-45 -17q-18 -4 -28.5 -19t-10.5 -34v-1012q0 -156 61 -239.5t174 -83.5q65 0 122.5 28.5t98 75t70.5 104t44.5 116.5t14.5 112v899q0 44 -38 53l-46 17h312l-45 -17q-18 -4 -28.5 -19t-10.5 -34v-1294q0 -19 10.5 -34.5t28.5 -19.5l45 -16h-312l46 16
q38 9 38 54v65q0 27 -10 27q-6 0 -20 -17q-53 -67 -135.5 -106t-184.5 -39q-174 0 -275.5 97.5t-101.5 254.5v1012q0 19 -11 34t-28 19zM428 1655l47 63l170 -170l-10 -16z" />
    <glyph glyph-name="Uacute" unicode="&#xda;" horiz-adv-x="1083" 
d="M16 1434h312l-45 -17q-18 -4 -28.5 -19t-10.5 -34v-1012q0 -156 61 -239.5t174 -83.5q65 0 122.5 28.5t98 75t70.5 104t44.5 116.5t14.5 112v899q0 44 -38 53l-46 17h312l-45 -17q-18 -4 -28.5 -19t-10.5 -34v-1294q0 -19 10.5 -34.5t28.5 -19.5l45 -16h-312l46 16
q38 9 38 54v65q0 27 -10 27q-6 0 -20 -17q-53 -67 -135.5 -106t-184.5 -39q-174 0 -275.5 97.5t-101.5 254.5v1012q0 19 -11 34t-28 19zM438 1532l-10 16l170 170l47 -63z" />
    <glyph glyph-name="Ucircumflex" unicode="&#xdb;" horiz-adv-x="1083" 
d="M63 1417l-47 17h312l-45 -17q-18 -4 -28.5 -19t-10.5 -34v-1012q0 -156 61 -239.5t174 -83.5q65 0 122.5 28.5t98 75t70.5 104t44.5 116.5t14.5 112v899q0 44 -38 53l-46 17h312l-45 -17q-18 -4 -28.5 -19t-10.5 -34v-1294q0 -19 10.5 -34.5t28.5 -19.5l45 -16h-312
l46 16q38 9 38 54v65q0 27 -10 27q-6 0 -20 -17q-53 -67 -135.5 -106t-184.5 -39q-174 0 -275.5 97.5t-101.5 254.5v1012q0 19 -11 34t-28 19zM324 1532l170 207h86l170 -207l-13 -19l-178 140q-9 6 -22 6q-14 0 -23 -6l-180 -137z" />
    <glyph glyph-name="Udieresis" unicode="&#xdc;" horiz-adv-x="1083" 
d="M16 1434h312l-45 -17q-18 -4 -28.5 -19t-10.5 -34v-1012q0 -156 61 -239.5t174 -83.5q65 0 122.5 28.5t98 75t70.5 104t44.5 116.5t14.5 112v899q0 44 -38 53l-46 17h312l-45 -17q-18 -4 -28.5 -19t-10.5 -34v-1294q0 -19 10.5 -34.5t28.5 -19.5l45 -16h-312l46 16
q38 9 38 54v65q0 27 -10 27q-6 0 -20 -17q-53 -67 -135.5 -106t-184.5 -39q-174 0 -275.5 97.5t-101.5 254.5v1012q0 19 -11 34t-28 19zM309 1622q-1 41 22.5 67.5t59.5 28.5q40 0 65.5 -23.5t26.5 -64.5q3 -41 -21 -68t-61 -30q-36 -2 -62.5 23t-29.5 67zM590 1622
q-1 41 22.5 67.5t59.5 28.5q39 0 64 -24t28 -64q1 -42 -22.5 -68.5t-59.5 -29.5q-37 -2 -63 23t-29 67z" />
    <glyph glyph-name="Yacute" unicode="&#xdd;" horiz-adv-x="1007" 
d="M8 1413l-51 21h334l-70 -21q-10 -3 -14.5 -13.5t0.5 -19.5l358 -626q14 -21 29 -21q14 0 27 23q206 386 274 618q5 12 -2.5 24t-20.5 15l-75 21h229l-397 -725q-27 -52 -27 -107v-532q0 -19 10.5 -34.5t28.5 -19.5l45 -16h-311l47 16q17 4 28 19.5t11 34.5v528
q0 48 -29 104l-391 682q-10 22 -33 29zM422 1532l-10 16l170 170l47 -63z" />
    <glyph glyph-name="agrave" unicode="&#xe0;" horiz-adv-x="845" 
d="M35 246q0 123 114.5 209t276.5 86q78 0 113 -2q23 -2 40 13t17 38v74q0 122 -44 189t-122 67q-82 0 -151.5 -50t-81.5 -129l-19 -106l-69 182q131 131 321 131q81 0 148.5 -29t113 -95t45.5 -160v-594q0 -19 10.5 -34.5t28.5 -19.5l45 -16h-225v43q0 18 -14 18
q-11 0 -31 -10q-84 -51 -215 -51q-76 0 -142.5 25.5t-112.5 83t-46 137.5zM426 512q-103 0 -176.5 -82t-73.5 -199q0 -53 13.5 -93t31.5 -60t43 -32t41 -14.5t31 -2.5q48 0 88.5 12.5t66 31t46 44.5t31 48.5t17.5 48t8.5 37t2.5 21.5v162q0 24 -16 44.5t-39 23.5
q-58 10 -115 10zM319 1169l48 66l170 -172l-11 -14z" />
    <glyph glyph-name="aacute" unicode="&#xe1;" horiz-adv-x="845" 
d="M35 246q0 123 114.5 209t276.5 86q78 0 113 -2q23 -2 40 13t17 38v74q0 122 -44 189t-122 67q-82 0 -151.5 -50t-81.5 -129l-19 -106l-69 182q131 131 321 131q81 0 148.5 -29t113 -95t45.5 -160v-594q0 -19 10.5 -34.5t28.5 -19.5l45 -16h-225v43q0 18 -14 18
q-11 0 -31 -10q-84 -51 -215 -51q-76 0 -142.5 25.5t-112.5 83t-46 137.5zM176 231q0 -53 13.5 -93t31.5 -60t43 -32t41 -14.5t31 -2.5q48 0 88.5 12.5t66 31t46 44.5t31 48.5t17.5 48t8.5 37t2.5 21.5v162q0 24 -16 44.5t-39 23.5q-58 10 -115 10q-103 0 -176.5 -82
t-73.5 -199zM319 1063l170 172l48 -66l-207 -120z" />
    <glyph glyph-name="acircumflex" unicode="&#xe2;" horiz-adv-x="845" 
d="M336 0q-76 0 -142.5 25.5t-112.5 83t-46 137.5q0 123 114.5 209t276.5 86q78 0 113 -2q23 -2 40 13t17 38v74q0 122 -44 189t-122 67q-82 0 -151.5 -50t-81.5 -129l-19 -106l-69 182q131 131 321 131q81 0 148.5 -29t113 -95t45.5 -160v-594q0 -19 10.5 -34.5t28.5 -19.5
l45 -16h-225v43q0 18 -14 18q-11 0 -31 -10q-84 -51 -215 -51zM426 512q-103 0 -176.5 -82t-73.5 -199q0 -53 13.5 -93t31.5 -60t43 -32t41 -14.5t31 -2.5q48 0 88.5 12.5t66 31t46 44.5t31 48.5t17.5 48t8.5 37t2.5 21.5v162q0 24 -16 44.5t-39 23.5q-58 10 -115 10z
M225 1030l-10 17l170 206h86l170 -206l-12 -19l-178 139q-9 9 -23 9q-13 0 -22 -9z" />
    <glyph glyph-name="atilde" unicode="&#xe3;" horiz-adv-x="845" 
d="M35 246q0 123 114.5 209t276.5 86q78 0 113 -2q23 -2 40 13t17 38v74q0 122 -44 189t-122 67q-82 0 -151.5 -50t-81.5 -129l-19 -106l-69 182q131 131 321 131q81 0 148.5 -29t113 -95t45.5 -160v-594q0 -19 10.5 -34.5t28.5 -19.5l45 -16h-225v43q0 18 -14 18
q-11 0 -31 -10q-84 -51 -215 -51q-76 0 -142.5 25.5t-112.5 83t-46 137.5zM176 231q0 -53 13.5 -93t31.5 -60t43 -32t41 -14.5t31 -2.5q48 0 88.5 12.5t66 31t46 44.5t31 48.5t17.5 48t8.5 37t2.5 21.5v162q0 24 -16 44.5t-39 23.5q-58 10 -115 10q-103 0 -176.5 -82
t-73.5 -199zM279 1083q0 115 65 115q10 0 21 -2.5t24.5 -8t21.5 -9t24 -11.5l20 -10q46 -22 65 -22q17 0 27 13.5t18 43.5h13q0 -61 -15 -85t-43 -24q-12 0 -27.5 5.5t-27.5 11.5t-33.5 18.5t-34.5 18.5q-27 16 -51 16q-20 0 -30.5 -16.5t-20.5 -53.5h-16z" />
    <glyph glyph-name="adieresis" unicode="&#xe4;" horiz-adv-x="845" 
d="M336 0q-76 0 -142.5 25.5t-112.5 83t-46 137.5q0 123 114.5 209t276.5 86q78 0 113 -2q23 -2 40 13t17 38v74q0 122 -44 189t-122 67q-82 0 -151.5 -50t-81.5 -129l-19 -106l-69 182q131 131 321 131q81 0 148.5 -29t113 -95t45.5 -160v-594q0 -19 10.5 -34.5t28.5 -19.5
l45 -16h-225v43q0 18 -14 18q-11 0 -31 -10q-84 -51 -215 -51zM426 512q-103 0 -176.5 -82t-73.5 -199q0 -53 13.5 -93t31.5 -60t43 -32t41 -14.5t31 -2.5q48 0 88.5 12.5t66 31t46 44.5t31 48.5t17.5 48t8.5 37t2.5 21.5v162q0 24 -16 44.5t-39 23.5q-58 10 -115 10z
M201 1137q-1 42 22.5 68.5t59.5 29.5q40 0 65 -25t27 -65q3 -41 -21 -67.5t-61 -28.5q-41 0 -65 23t-27 65zM481 1137q-1 42 22.5 68.5t59.5 29.5q36 2 62.5 -23t29.5 -67q1 -41 -22.5 -67.5t-59.5 -28.5q-41 0 -65 23t-27 65z" />
    <glyph glyph-name="aring" unicode="&#xe5;" horiz-adv-x="831" 
d="M35 246q0 123 114.5 209t276.5 86q78 0 113 -2q23 -2 40 13t17 38v74q0 122 -44 189t-122 67q-82 0 -151.5 -50t-81.5 -129l-19 -106l-69 182q106 106 256 127q-47 19 -76.5 62t-32.5 100q-3 82 43 137q49 52 119 55q80 0 129.5 -47.5t52.5 -126.5q3 -83 -43 -135
q-31 -34 -65 -45q105 -16 175 -88t70 -192v-594q0 -19 10.5 -34.5t28.5 -19.5l45 -16h-225v43q0 18 -14 18q-11 0 -31 -10q-84 -51 -215 -51q-76 0 -142.5 25.5t-112.5 83t-46 137.5zM176 231q0 -53 13.5 -93t31.5 -60t43 -32t41 -14.5t31 -2.5q48 0 88.5 12.5t66 31
t46 44.5t31 48.5t17.5 48t8.5 37t2.5 21.5v162q0 24 -16 44.5t-39 23.5q-58 10 -115 10q-103 0 -176.5 -82t-73.5 -199zM336 1206q-34 -37 -31 -98q3 -59 37 -93t92 -34q53 3 86 39q34 40 31 100q-3 59 -41 97q-38 30 -82 30h-6q-51 -3 -86 -41z" />
    <glyph glyph-name="ae" unicode="&#xe6;" horiz-adv-x="1419" 
d="M336 0q-76 0 -142.5 25.5t-112.5 83t-46 137.5q0 123 114.5 209t276.5 86q78 0 113 -2q23 -2 40 13t17 38v74q0 122 -44 189t-122 67q-82 0 -151.5 -50t-81.5 -129l-19 -106l-69 182q131 131 321 131q70 0 133.5 -24t106.5 -70q14 -20 37 -20q20 0 34 14q105 100 256 100
q164 0 270.5 -120t106.5 -285h-577q-23 0 -40.5 -10.5t-19.5 -24.5v-33q0 -192 90.5 -319t225.5 -127q82 0 151.5 50t81.5 128l21 106l67 -182q-128 -131 -321 -131q-151 0 -273 88q-21 18 -35 18q-8 0 -8 -8v-28q0 -19 10.5 -34.5t28.5 -19.5l45 -16h-225v43q0 18 -14 18
q-11 0 -31 -10q-84 -51 -215 -51zM426 512q-103 0 -176.5 -82t-73.5 -199q0 -53 13.5 -93t31.5 -60t43 -32t41 -14.5t31 -2.5q48 0 88.5 12.5t66 31t46 44.5t31 48.5t17.5 48t8.5 37t2.5 21.5v162q0 24 -16 44.5t-39 23.5q-58 10 -115 10zM752 627q-4 -23 10 -39.5t37 -16.5
h377q24 0 40 16.5t13 39.5q-15 134 -77 213.5t-155 79.5q-90 0 -155 -79.5t-90 -213.5z" />
    <glyph glyph-name="ccedilla" unicode="&#xe7;" horiz-adv-x="860" 
d="M455 2q-11 2 -20.5 -5.5t-10.5 -19.5l-14 -90q-1 -12 5 -19t17 -5q34 6 72 6q66 0 110 -36.5t48 -94.5q3 -63 -37 -103q-42 -45 -107 -45q-38 0 -75 10t-55 20l-17 9l16 52q2 -3 6.5 -7t18.5 -14.5t28 -19t35.5 -15t42.5 -6.5q56 0 86 35q32 37 29 82q-3 51 -41 77.5
t-88 26.5q-24 0 -52 -3t-44 -6l-17 -3l-20 -4l24 160q3 24 -24 34q-148 40 -239 165t-91 292q0 202 131 337.5t328 135.5q190 0 321 -131l-69 -182l-19 106q-17 80 -83 129.5t-150 49.5q-135 0 -226.5 -127.5t-91.5 -317.5q0 -191 91.5 -318.5t226.5 -127.5q84 0 150 49
t83 129l19 106l69 -182q-131 -131 -321 -131q-31 0 -45 2z" />
    <glyph glyph-name="egrave" unicode="&#xe8;" horiz-adv-x="866" 
d="M735 207l19 106l69 -182q-131 -131 -321 -131q-196 0 -327.5 136t-131.5 339q0 204 112 338.5t289 134.5q110 0 198 -57t134.5 -149t46.5 -199h-579q-23 0 -40.5 -10.5t-17.5 -24.5q-2 -10 -2 -33q0 -191 91.5 -318.5t226.5 -127.5q84 0 150 49t83 129zM199 627
q-4 -23 10 -39.5t39 -16.5h377q23 0 38.5 16.5t12.5 39.5q-14 133 -76.5 213t-155.5 80q-89 0 -154.5 -80t-90.5 -213zM543 1063l-13 -14l-206 120l47 66z" />
    <glyph glyph-name="eacute" unicode="&#xe9;" horiz-adv-x="866" 
d="M735 207l19 106l69 -182q-131 -131 -321 -131q-196 0 -327.5 136t-131.5 339q0 204 112 338.5t289 134.5q110 0 198 -57t134.5 -149t46.5 -199h-579q-23 0 -40.5 -10.5t-17.5 -24.5q-2 -10 -2 -33q0 -191 91.5 -318.5t226.5 -127.5q84 0 150 49t83 129zM199 627
q-4 -23 10 -39.5t39 -16.5h377q23 0 38.5 16.5t12.5 39.5q-14 133 -76.5 213t-155.5 80q-89 0 -154.5 -80t-90.5 -213zM543 1169l-209 -120l-10 14l170 172z" />
    <glyph glyph-name="ecircumflex" unicode="&#xea;" horiz-adv-x="866" 
d="M735 207l19 106l69 -182q-131 -131 -321 -131q-196 0 -327.5 136t-131.5 339q0 204 112 338.5t289 134.5q110 0 198 -57t134.5 -149t46.5 -199h-579q-23 0 -40.5 -10.5t-17.5 -24.5q-2 -10 -2 -33q0 -191 91.5 -318.5t226.5 -127.5q84 0 150 49t83 129zM199 627
q-4 -23 10 -39.5t39 -16.5h377q23 0 38.5 16.5t12.5 39.5q-14 133 -76.5 213t-155.5 80q-89 0 -154.5 -80t-90.5 -213zM410 1167l-179 -137l-12 17l170 206h86l172 -206l-12 -19l-180 139q-9 9 -23 9q-13 0 -22 -9z" />
    <glyph glyph-name="edieresis" unicode="&#xeb;" horiz-adv-x="866" 
d="M735 207l19 106l69 -182q-131 -131 -321 -131q-196 0 -327.5 136t-131.5 339q0 204 112 338.5t289 134.5q110 0 198 -57t134.5 -149t46.5 -199h-579q-23 0 -40.5 -10.5t-17.5 -24.5q-2 -10 -2 -33q0 -191 91.5 -318.5t226.5 -127.5q84 0 150 49t83 129zM199 627
q-4 -23 10 -39.5t39 -16.5h377q23 0 38.5 16.5t12.5 39.5q-14 133 -76.5 213t-155.5 80q-89 0 -154.5 -80t-90.5 -213zM297 1049q-41 0 -64.5 23.5t-25.5 64.5q-3 42 20.5 68.5t61.5 29.5q36 2 62.5 -23t27.5 -67q3 -41 -21 -67.5t-61 -28.5zM578 1049q-41 0 -65.5 23.5
t-27.5 64.5q-1 42 22.5 68.5t59.5 29.5q40 0 65 -25t27 -65q1 -41 -22 -67.5t-59 -28.5z" />
    <glyph glyph-name="igrave" unicode="&#xec;" horiz-adv-x="370" 
d="M78 16q17 4 28 19.5t11 34.5v782q0 39 -39 53l-47 15l227 28v-878q0 -19 10.5 -34.5t28.5 -19.5l45 -16h-311zM295 1063l-10 -14l-207 120l47 66z" />
    <glyph glyph-name="iacute" unicode="&#xed;" horiz-adv-x="370" 
d="M78 16q17 4 28 19.5t11 34.5v782q0 39 -39 53l-47 15l227 28v-878q0 -19 10.5 -34.5t28.5 -19.5l45 -16h-311zM295 1169l-207 -120l-10 14l170 172z" />
    <glyph glyph-name="icircumflex" unicode="&#xee;" horiz-adv-x="350" 
d="M252 70q0 -19 10.5 -34.5t28.5 -19.5l45 -16h-311l47 16q17 4 28 19.5t11 34.5v782q0 39 -39 53l-47 15l227 28v-878zM223 1253l170 -206l-12 -19l-178 139q-9 9 -23 9q-13 0 -22 -9l-181 -137l-10 17l170 206h86z" />
    <glyph glyph-name="idieresis" unicode="&#xef;" horiz-adv-x="350" 
d="M250 70q0 -19 11 -34.5t28 -19.5l47 -16h-311l45 16q18 4 28.5 19.5t10.5 34.5v782q0 41 -39 53l-45 15l225 28v-878zM127 1145q1 -41 -22.5 -67.5t-59.5 -28.5q-41 0 -65 23t-27 65q-1 42 22.5 68.5t59.5 29.5q36 2 62.5 -23t29.5 -67zM315 1235q36 2 63 -23t28 -67
q3 -41 -21 -67.5t-61 -28.5q-41 0 -65 23.5t-26 64.5q-3 42 20.5 68.5t61.5 29.5z" />
    <glyph glyph-name="ntilde" unicode="&#xf1;" horiz-adv-x="894" 
d="M72 905l-47 15l227 28v-47q0 -22 16 -22q10 0 27 10q78 59 194 59q127 0 212 -72.5t85 -181.5v-624q0 -19 11 -34.5t28 -19.5l47 -16h-311l45 16q18 4 28.5 19.5t10.5 34.5v624q0 100 -43.5 163t-112.5 63q-59 0 -106.5 -30.5t-75 -79t-41.5 -104t-14 -110.5v-526
q0 -19 10.5 -34.5t28.5 -19.5l45 -16h-311l47 16q17 4 28 19.5t11 34.5v782q0 39 -39 53zM315 1083h-16q0 115 66 115q12 0 27.5 -4.5t26.5 -9.5t29.5 -14.5t26.5 -12.5q46 -22 64 -22q17 0 27.5 13.5t19.5 43.5h12q0 -61 -14.5 -85t-42.5 -24q-12 0 -28 5.5t-27 11t-35 19
t-33 18.5q-31 16 -51 16t-31 -16.5t-21 -53.5z" />
    <glyph glyph-name="ograve" unicode="&#xf2;" horiz-adv-x="999" 
d="M500 948q195 0 325.5 -135.5t130.5 -337.5q0 -203 -130.5 -339t-325.5 -136q-196 0 -327.5 136t-131.5 339q0 202 131 337.5t328 135.5zM500 29q135 0 225 127t90 319q0 191 -90 318t-225 127t-226.5 -127.5t-91.5 -317.5q0 -191 91.5 -318.5t226.5 -127.5zM608 1063
l-10 -14l-209 120l49 66z" />
    <glyph glyph-name="oacute" unicode="&#xf3;" horiz-adv-x="999" 
d="M500 948q195 0 325.5 -135.5t130.5 -337.5q0 -203 -130.5 -339t-325.5 -136q-196 0 -327.5 136t-131.5 339q0 202 131 337.5t328 135.5zM500 29q135 0 225 127t90 319q0 191 -90 318t-225 127t-226.5 -127.5t-91.5 -317.5q0 -191 91.5 -318.5t226.5 -127.5zM608 1169
l-207 -120l-12 14l172 172z" />
    <glyph glyph-name="ocircumflex" unicode="&#xf4;" horiz-adv-x="999" 
d="M500 948q195 0 325.5 -135.5t130.5 -337.5q0 -203 -130.5 -339t-325.5 -136q-196 0 -327.5 136t-131.5 339q0 202 131 337.5t328 135.5zM500 29q135 0 225 127t90 319q0 191 -90 318t-225 127t-226.5 -127.5t-91.5 -317.5q0 -191 91.5 -318.5t226.5 -127.5zM477 1167
l-180 -137l-12 17l172 206h86l170 -206l-13 -19l-178 139q-9 9 -22 9q-14 0 -23 -9z" />
    <glyph glyph-name="otilde" unicode="&#xf5;" horiz-adv-x="999" 
d="M500 948q195 0 325.5 -135.5t130.5 -337.5q0 -203 -130.5 -339t-325.5 -136q-196 0 -327.5 136t-131.5 339q0 202 131 337.5t328 135.5zM500 29q135 0 225 127t90 319q0 191 -90 318t-225 127t-226.5 -127.5t-91.5 -317.5q0 -191 91.5 -318.5t226.5 -127.5zM469 1137
q-31 16 -51 16q-22 0 -32 -16.5t-19 -53.5h-17q0 115 64 115q12 0 29 -5t25 -8.5t31.5 -15t24.5 -12.5q46 -22 66 -22q17 0 27.5 13.5t19.5 43.5h10q0 -61 -14 -85t-41 -24q-12 0 -28.5 5.5t-27.5 11.5t-34 19t-33 18z" />
    <glyph glyph-name="odieresis" unicode="&#xf6;" horiz-adv-x="999" 
d="M500 948q195 0 325.5 -135.5t130.5 -337.5q0 -203 -130.5 -339t-325.5 -136q-196 0 -327.5 136t-131.5 339q0 202 131 337.5t328 135.5zM500 29q135 0 225 127t90 319q0 191 -90 318t-225 127t-226.5 -127.5t-91.5 -317.5q0 -191 91.5 -318.5t226.5 -127.5zM365 1049
q-42 0 -67 23t-26 65t22.5 68.5t59.5 29.5q36 2 62.5 -23t29.5 -67q1 -41 -22 -67.5t-59 -28.5zM643 1049q-41 0 -64.5 23.5t-25.5 64.5q-3 42 20.5 68.5t61.5 29.5q36 2 62.5 -23t27.5 -67q3 -41 -21 -67.5t-61 -28.5z" />
    <glyph glyph-name="oslash" unicode="&#xf8;" horiz-adv-x="999" 
d="M713 897q112 -59 177.5 -171t65.5 -251q0 -203 -130.5 -339t-325.5 -136q-42 0 -80 6q-30 0 -48 -8t-26 -33l-31 -96h-30l34 106q7 22 -2.5 43.5t-31.5 32.5q-112 60 -178 172t-66 252q0 202 131 337.5t328 135.5q40 0 80 -6q29 0 46 8t25 33l33 96h29l-35 -104
q-7 -23 3 -45t32 -33zM309 113q13 -13 27 -13q25 0 35 29l231 707q8 22 -2 45t-31 30q-35 9 -69 9q-135 0 -226.5 -127.5t-91.5 -317.5q0 -113 33.5 -207t93.5 -155zM500 29q135 0 225 127t90 319q0 112 -33.5 206t-93.5 155q-12 12 -26 12q-25 0 -35 -29l-232 -704
q-8 -24 2 -47t33 -29q38 -10 70 -10z" />
    <glyph glyph-name="ugrave" unicode="&#xf9;" horiz-adv-x="892" 
d="M66 905l-48 15l228 28v-694q0 -100 43 -162.5t112 -62.5q72 0 128 49t83 117.5t27 138.5v518q0 41 -39 53l-45 15l225 28v-878q0 -19 11 -34.5t28 -19.5l47 -16h-227v47q0 25 -16 25q-11 0 -27 -13q-83 -59 -195 -59q-127 0 -212 72.5t-85 181.5v598q0 40 -38 53z
M334 1169l47 66l170 -172l-10 -14z" />
    <glyph glyph-name="uacute" unicode="&#xfa;" horiz-adv-x="892" 
d="M66 905l-48 15l228 28v-694q0 -100 43 -162.5t112 -62.5q72 0 128 49t83 117.5t27 138.5v518q0 41 -39 53l-45 15l225 28v-878q0 -19 11 -34.5t28 -19.5l47 -16h-227v47q0 25 -16 25q-11 0 -27 -13q-83 -59 -195 -59q-127 0 -212 72.5t-85 181.5v598q0 40 -38 53z
M344 1049l-10 14l170 172l47 -66z" />
    <glyph glyph-name="ucircumflex" unicode="&#xfb;" horiz-adv-x="892" 
d="M18 920l228 28v-694q0 -100 43 -162.5t112 -62.5q72 0 128 49t83 117.5t27 138.5v518q0 41 -39 53l-45 15l225 28v-878q0 -19 11 -34.5t28 -19.5l47 -16h-227v47q0 25 -16 25q-11 0 -27 -13q-83 -59 -195 -59q-127 0 -212 72.5t-85 181.5v598q0 40 -38 53zM229 1047
l170 206h86l170 -206l-12 -19l-178 139q-9 9 -23 9q-13 0 -22 -9l-180 -137z" />
    <glyph glyph-name="udieresis" unicode="&#xfc;" horiz-adv-x="892" 
d="M66 905l-48 15l228 28v-694q0 -100 43 -162.5t112 -62.5q72 0 128 49t83 117.5t27 138.5v518q0 41 -39 53l-45 15l225 28v-878q0 -19 11 -34.5t28 -19.5l47 -16h-227v47q0 25 -16 25q-11 0 -27 -13q-83 -59 -195 -59q-127 0 -212 72.5t-85 181.5v598q0 40 -38 53z
M215 1137q-1 42 22.5 68.5t59.5 29.5q40 0 65 -25t27 -65q1 -41 -22.5 -67.5t-59.5 -28.5q-41 0 -65 23t-27 65zM496 1137q-1 42 22.5 68.5t59.5 29.5q36 2 62.5 -23t29.5 -67q1 -41 -22.5 -67.5t-59.5 -28.5q-42 0 -66.5 23t-25.5 65z" />
    <glyph glyph-name="yacute" unicode="&#xfd;" horiz-adv-x="741" 
d="M-16 948h319l-55 -14q-20 -6 -30.5 -24t-4.5 -38l215 -667q10 -23 18 -23q10 0 17 23q25 76 29 94q111 344 145 571q3 22 -9 40t-34 22l-64 16h201l-379 -1177q-96 -312 -291 -312l-28 197l14 -27q13 -26 43 -26h4q56 4 97.5 21.5t69 50t44 63t33.5 76.5q18 57 41 133
q7 22 5 37.5t-13 15.5h-27l-285 887q-10 34 -43 47zM276 1063l173 172l47 -66l-209 -120z" />
    <glyph glyph-name="ydieresis" unicode="&#xff;" horiz-adv-x="741" 
d="M-16 948h319l-55 -14q-20 -6 -30.5 -24t-4.5 -38l215 -667q10 -23 18 -23q10 0 17 23q25 76 29 94q111 344 145 571q3 22 -9 40t-34 22l-64 16h201l-379 -1177q-96 -312 -291 -312l-28 197l14 -27q13 -26 43 -26h4q56 4 97.5 21.5t69 50t44 63t33.5 76.5q18 57 41 133
q7 22 5 37.5t-13 15.5h-27l-285 887q-10 34 -43 47zM160 1137q-3 42 20.5 68.5t61.5 29.5q36 2 62.5 -23t29.5 -67q1 -41 -22.5 -67.5t-59.5 -28.5q-42 0 -66.5 23t-25.5 65zM440 1137q-3 41 20 68t60 30q40 0 65 -25t27 -65q3 -41 -21 -67.5t-61 -28.5q-41 0 -64.5 23.5
t-25.5 64.5z" />
    <glyph glyph-name="dotlessi" unicode="&#x131;" horiz-adv-x="370" 
d="M78 16q17 4 28 19.5t11 34.5v782q0 39 -39 53l-47 15l227 28v-878q0 -19 10.5 -34.5t28.5 -19.5l45 -16h-311z" />
    <glyph glyph-name="OE" unicode="&#x152;" horiz-adv-x="1994" 
d="M696 0q-139 0 -262 55t-210.5 149.5t-138 228t-50.5 284.5t50.5 284.5t138 228t210.5 149.5t262 55q268 0 455 -187q14 -14 25 -14q14 0 14 29v102q0 19 -11 34t-28 19l-47 17h772l29 -113q-18 8 -54.5 19.5t-170 34t-291.5 28.5q-24 1 -41 -15t-17 -40v-398
q0 -23 16.5 -39t41.5 -16h421l29 -115q-4 3 -12 8t-43 19t-80.5 24.5t-129.5 20.5t-185 12q-24 1 -41 -15t-17 -40v-723q0 -23 16.5 -39t41.5 -16q122 6 228.5 22t171.5 35.5t113 38t68 31.5l19 12l-56 -170h-829l47 14q17 6 28 21.5t11 34.5v102q0 29 -14 29q-10 0 -25 -15
q-186 -186 -455 -186zM176 717q0 -194 67.5 -351.5t187 -247t265.5 -89.5q162 0 290.5 109.5t187.5 293.5q16 46 16 111v348q0 64 -16 110q-59 184 -187.5 294t-290.5 110q-146 0 -265.5 -89.5t-187 -247t-67.5 -351.5z" />
    <glyph glyph-name="oe" unicode="&#x153;" horiz-adv-x="1503" 
d="M1372 207l19 106l69 -182q-131 -131 -323 -131q-158 0 -277 92q-17 14 -43 14q-23 0 -43 -14q-119 -92 -274 -92q-196 0 -327.5 136t-131.5 339q0 202 131 337.5t328 135.5q145 0 264 -82q18 -12 39 -12q28 0 45 14q99 80 233 80q164 0 271.5 -120t107.5 -285h-579
q-23 0 -40.5 -10.5t-19.5 -24.5v-33q0 -192 90.5 -319t225.5 -127q84 0 151 49t84 129zM836 627q-4 -23 10 -39.5t37 -16.5h377q25 0 40.5 16.5t12.5 39.5q-14 133 -76.5 213t-155.5 80q-89 0 -154.5 -80t-90.5 -213zM725 158q13 20 13 47.5t-11 50.5q-47 100 -47 219
q0 121 45 227q9 21 8 50t-14 49q-42 56 -98.5 87.5t-120.5 31.5q-135 0 -226.5 -127.5t-91.5 -317.5q0 -191 91.5 -318.5t226.5 -127.5q136 0 225 129z" />
    <glyph glyph-name="Scaron" unicode="&#x160;" horiz-adv-x="960" 
d="M541 797q10 -7 52.5 -33.5t56 -35.5t51.5 -35.5t52.5 -39.5t45 -40t43.5 -45.5t33 -47.5t28.5 -55t15.5 -58.5t7 -66.5q0 -150 -107.5 -245t-290.5 -95q-122 0 -218.5 33t-153.5 87.5t-86 119.5t-29 135q0 78 25.5 140t69 101.5t91 63.5t101.5 37q23 6 26 17.5t-16 23.5
q-56 37 -95 70t-76 76t-56 94.5t-19 109.5q0 62 24 119.5t68 104t114.5 74.5t156.5 28q130 0 241 -67t187 -187l-86 -172l-19 125q-25 110 -119 191t-204 81q-62 0 -107 -23t-68 -60t-33.5 -73.5t-10.5 -72.5q0 -61 22.5 -114t68.5 -100t94 -83t120 -82zM528 29
q118 0 187 66.5t69 176.5q0 66 -24.5 124t-73.5 108.5t-98.5 88t-122.5 83.5l-21 14q-6 6 -30 6t-43 -8q-34 -12 -63.5 -31.5t-59.5 -54.5t-48 -92.5t-18 -130.5q0 -68 20 -128.5t60 -111t108.5 -80.5t157.5 -30zM526 1513h-86l-170 207l13 19l178 -140q12 -8 22 -8
q11 0 23 8l180 138l10 -17z" />
    <glyph glyph-name="scaron" unicode="&#x161;" horiz-adv-x="749" 
d="M412 561q13 -8 49 -27.5t53 -29.5t48.5 -31t48 -35.5t39 -38.5t33.5 -46.5t19.5 -51.5t8.5 -61q0 -105 -92 -172.5t-236 -67.5q-57 0 -113.5 13.5t-107.5 41.5t-83 78t-32 115q0 73 46.5 127t115.5 86q47 23 4 51q-67 41 -105 91t-38 118q0 92 70.5 159.5t195.5 67.5
q190 0 321 -131l-69 -182l-19 104q-12 80 -81 130.5t-152 50.5q-61 0 -93 -35.5t-32 -96.5q0 -64 48.5 -116t152.5 -111zM383 29q77 0 131.5 36t54.5 105q0 83 -53.5 142t-171.5 126q-3 1 -8 4t-8 4q-3 3 -9 3q-28 0 -55 -27q-76 -68 -76 -174q0 -62 19.5 -107t51 -68
t62.5 -33.5t62 -10.5zM422 1028h-86l-170 207l12 18l178 -139q9 -6 23 -6q13 0 22 6l181 137l10 -16z" />
    <glyph glyph-name="Ydieresis" unicode="&#x178;" horiz-adv-x="1007" 
d="M8 1413l-51 21h334l-70 -21q-10 -3 -14.5 -13.5t0.5 -19.5l358 -626q14 -21 29 -21q14 0 27 23q206 386 274 618q5 12 -2.5 24t-20.5 15l-75 21h229l-397 -725q-27 -52 -27 -107v-532q0 -19 10.5 -34.5t28.5 -19.5l45 -16h-311l47 16q17 4 28 19.5t11 34.5v528
q0 48 -29 104l-391 682q-10 22 -33 29zM573 1622q-1 41 22.5 67.5t59.5 28.5q40 0 65 -24t28 -64q1 -42 -22.5 -68.5t-59.5 -29.5q-40 0 -65.5 25t-27.5 65zM293 1622q-1 41 22.5 67.5t59.5 28.5q40 0 65.5 -23.5t26.5 -64.5q1 -42 -22.5 -68.5t-59.5 -29.5q-36 -2 -62.5 23
t-29.5 67z" />
    <glyph glyph-name="zcaron" unicode="&#x17e;" horiz-adv-x="636" 
d="M211 80q-11 -22 -1.5 -36.5t34.5 -14.5q126 4 219.5 18t124.5 27l30 12l-28 -86h-574l408 868q11 22 1.5 36.5t-32.5 13.5q-95 -4 -182 -17.5t-127 -24.5l-39 -12l29 84h544zM360 1028h-86l-170 207l13 18l178 -139q9 -6 22 -6q14 0 23 6l180 137l10 -16z" />
    <glyph glyph-name="endash" unicode="&#x2013;" horiz-adv-x="778" 
d="M745 455h-712v28h712v-28z" />
    <glyph glyph-name="emdash" unicode="&#x2014;" horiz-adv-x="778" 
d="M745 702h-712v29h712v-29z" />
    <glyph glyph-name="quoteleft" unicode="&#x2018;" horiz-adv-x="268" 
d="M145 1427h64l-45 -290h-109z" />
    <glyph glyph-name="quoteright" unicode="&#x2019;" horiz-adv-x="266" 
d="M104 1427h107l-90 -290h-64z" />
    <glyph glyph-name="quotesinglbase" unicode="&#x201a;" horiz-adv-x="280" 
d="M135 184q37 2 64.5 -23.5t27.5 -66.5q0 -12 -1.5 -21.5t-3.5 -13.5l-1 -4l-69 -186l-41 18l34 111q-41 0 -65 24t-27 64q-1 42 22.5 68.5t59.5 29.5z" />
    <glyph glyph-name="quotedblleft" unicode="&#x201c;" horiz-adv-x="430" 
d="M217 1137l92 290h64l-47 -290h-109zM55 1137l90 290h64l-45 -290h-109z" />
    <glyph glyph-name="quotedblright" unicode="&#x201d;" horiz-adv-x="428" 
d="M219 1137l47 290h109l-90 -290h-66zM57 1137l47 290h107l-90 -290h-64z" />
    <glyph glyph-name="quotedblbase" unicode="&#x201e;" horiz-adv-x="411" 
d="M270 -76h-65l47 291l108 2zM106 -76h-63l47 291l107 2z" />
    <glyph glyph-name="dagger" unicode="&#x2020;" horiz-adv-x="741" 
d="M102 1116h226q12 0 20 9t8 20v287h29v-287q0 -11 8.5 -20t20.5 -9h225v-26h-225q-12 0 -20.5 -9t-8.5 -20v-1063h-29v1063q0 11 -8 20t-20 9h-226v26z" />
    <glyph glyph-name="bullet" unicode="&#x2022;" horiz-adv-x="425" 
d="M367 725q3 -74 -38.5 -121.5t-107.5 -52.5q-69 0 -113 44t-49 114q-3 74 38.5 121.5t107.5 50.5q70 0 113.5 -42.5t48.5 -113.5z" />
    <glyph glyph-name="ellipsis" unicode="&#x2026;" horiz-adv-x="849" 
d="M135 184q36 2 62.5 -23t29.5 -67q1 -41 -22.5 -67.5t-59.5 -28.5q-41 0 -65 24t-27 64q-1 42 22.5 68.5t59.5 29.5zM420 184q36 2 62.5 -23t27.5 -67q3 -40 -20.5 -67t-59.5 -29q-40 0 -65.5 23.5t-26.5 64.5q-3 42 20.5 68.5t61.5 29.5zM702 184q40 0 65.5 -25t27.5 -65
q3 -41 -21 -67.5t-61 -28.5q-40 0 -64 24t-26 64q-3 42 20 68.5t59 29.5z" />
    <glyph glyph-name="guilsinglleft" unicode="&#x2039;" horiz-adv-x="540" 
d="M47 717l447 340v-37l-377 -287q-9 -7 -9 -17t9 -18l377 -286v-35z" />
    <glyph glyph-name="guilsinglright" unicode="&#x203a;" horiz-adv-x="550" 
d="M504 717l-447 -340v35l377 286q9 8 9 18.5t-9 16.5l-377 287v37z" />
    <glyph glyph-name="Euro" unicode="&#x20ac;" horiz-adv-x="1409" 
d="M45 565v29h100q11 0 18.5 8.5t6.5 20.5q-6 46 -6 94q0 47 6 94q1 10 -6.5 18.5t-18.5 8.5h-100v28h105q12 0 21.5 8.5t12.5 20.5q53 239 228.5 389t414.5 150q156 0 288.5 -67t223.5 -187l-86 -172l-16 102q-19 84 -85 153t-152.5 105.5t-172.5 36.5
q-186 0 -323.5 -141.5t-179.5 -368.5q-3 -12 3.5 -20.5t18.5 -8.5h322v-28h-326q-12 0 -20.5 -8t-10.5 -19q-4 -31 -4 -94t4 -94q2 -12 10.5 -20.5t20.5 -8.5h326v-29h-322q-12 0 -18.5 -7.5t-3.5 -18.5q42 -228 179.5 -369t323.5 -141q86 0 172.5 36.5t152.5 105.5t85 153
l16 102l86 -172q-91 -120 -223.5 -187t-288.5 -67q-239 0 -414.5 149.5t-228.5 389.5q-3 11 -12.5 18.5t-21.5 7.5h-105z" />
    <glyph glyph-name="minus" unicode="&#x2212;" horiz-adv-x="604" 
d="M569 702h-536v29h536v-29z" />
    <glyph glyph-name="uniF000" unicode="&#xf000;" horiz-adv-x="1548" 
d="M41 475q0 202 131 337.5t328 135.5q77 0 141 -20q-66 84 -66 182q0 99 61 152t142 53q91 0 150.5 -58t68.5 -149l115 145v-247q0 -24 16.5 -41t40.5 -17h275l29 -84q-111 39 -304 51q-24 1 -40.5 -14t-16.5 -39v-577q0 -119 39.5 -187.5t108.5 -68.5q68 0 122 57
q43 40 52 104l20 123l70 -182q-109 -131 -264 -131q-132 0 -210.5 78t-78.5 207v635h-86v28h86v127q0 27 -11 57t-33 59.5t-61 49t-88 19.5q-72 0 -124 -36.5t-52 -113.5q0 -109 125 -221q51 -29 94 -72l-69 -182l-19 106q-17 80 -83 129.5t-150 49.5q-135 0 -226.5 -127.5
t-91.5 -317.5q0 -191 91.5 -318.5t226.5 -127.5q84 0 150 49t83 129l19 106l69 -182q-131 -131 -321 -131q-196 0 -327.5 136t-131.5 339z" />
    <glyph glyph-name="uniF001" unicode="&#xf001;" horiz-adv-x="1402" 
d="M31 0l47 16q17 4 28 19.5t11 34.5v782q0 39 -39 53l-47 15l227 28v-35q0 -14 10 -14q13 0 33 14q50 35 123 35q31 0 61 -6q-55 80 -55 168q0 99 61 152t142 53q92 0 151 -57.5t68 -149.5l115 145v-247q0 -23 17 -40.5t40 -17.5h274l29 -84q-108 39 -303 51q-23 2 -40 -14
t-17 -39v-577q0 -118 39.5 -187t107.5 -69q65 0 116 47.5t60 113.5l21 123l69 -182q-109 -131 -266 -131q-131 0 -210 78t-79 207v635h-84v28h84v127q0 27 -10.5 57t-32 59.5t-60.5 49t-89 19.5q-72 0 -123 -36.5t-51 -113.5q0 -91 102 -197q71 -38 115 -96l-70 -182
l-20 129q-10 61 -54.5 108.5t-103.5 47.5q-49 0 -85.5 -39t-53 -92t-24 -89t-7.5 -47v-583q0 -19 10.5 -34.5t28.5 -19.5l45 -16h-311z" />
    <glyph glyph-name="s_t" unicode="&#xfb06;" horiz-adv-x="1413" 
d="M47 248q0 73 46.5 127t115.5 86q47 23 4 51q-67 41 -105 91t-38 118q0 92 70.5 159.5t195.5 67.5q92 0 168 -30q-64 90 -64 192q0 99 61 152t142 53q91 0 150.5 -58t68.5 -149l115 145v-247q0 -24 16.5 -41t40.5 -17h275l28 -84q-110 39 -303 51q-24 1 -40.5 -14
t-16.5 -39v-577q0 -118 39.5 -187t107.5 -69q69 0 123 57q41 39 51 104l23 123l68 -182q-50 -62 -119 -96.5t-146 -34.5q-132 0 -210 78t-78 207v635h-86v28h86v127q0 27 -11 57t-32.5 59.5t-60.5 49t-89 19.5q-72 0 -123 -36.5t-51 -113.5q0 -120 127 -242q33 -20 61 -51
l-69 -182l-19 104q-12 80 -81 130.5t-152 50.5q-61 0 -93 -35.5t-32 -96.5q0 -64 48.5 -116t152.5 -111q13 -8 49 -27.5t53 -29.5t48.5 -31t48 -35.5t39 -38.5t33.5 -46.5t19.5 -51.5t8.5 -61q0 -105 -91.5 -172.5t-236.5 -67.5q-57 0 -113.5 13.5t-107.5 41.5t-83 78
t-32 115zM264 422q-76 -68 -76 -174q0 -62 19.5 -107t51 -68t62.5 -33.5t62 -10.5q77 0 131.5 36t54.5 105q0 83 -53.5 142t-171.5 126q-3 1 -8 4t-8 4q-3 3 -9 3q-28 0 -55 -27z" />
    <glyph glyph-name="uni0000.1" horiz-adv-x="0" 
 />
    <glyph glyph-name="uni000D.1" horiz-adv-x="0" 
 />
    </font>
</defs>
</svg>
